找回密码

蓝光电影网

查看: 258|回复: 4

[2160p] 勇者行动/勇举 Act.of.Valor.2012.2160p.WEB.H265-HOTLiPS 11.87GB

[复制链接]
蓝光币
1084
发表于 2020-11-1 20:31:14 | 显示全部楼层 |阅读模式


◎译  名 勇者行动/勇举/海豹神兵:勇敢行动(台)/海豹突击队(港)
◎片  名 Act of Valor
◎年  代 2012
◎产  地 美国
◎类  别 剧情 / 行动 / 战争
◎语  言 英语
◎上映日期 2012-02-24(美国)
◎IMDb评分  6.5/10 from 65979 users
◎IMDb链接  https://www.imdb.com/title/tt1591479/
◎豆瓣评分 7.7/10 from 33332 users
◎豆瓣链接 https://movie.douban.com/subject/5157137/
◎片  长 110分钟
◎导  演 迈克·麦科伊 Mike McCoy / 斯科特·沃 Scott Waugh
◎编  剧 库尔特·约恩斯塔德 Kurt Johnstad
◎主  演 罗塞莉·桑切斯 Roselyn Sánchez
       埃米里奥·瑞弗拉 Emilio Rivera
       内斯特·塞拉诺 Nestor Serrano
       冈萨洛·门内德斯 Gonzalo Menendez
       卡拉·吉门内斯 Carla Jimenez
       德雷娅·卡斯特罗 Drea Castro
       阿里萨·马绍尔 Ailsa Marshall
       亚历克斯·维多夫 Alex Veadov
◎标  签 战争 | 美国 | 军事 | 行动 | 枪战 | 反恐 | 2012 | 动人
◎简  介


  洛克,行将成为人父,正预备与大师分享这份高兴。却忽然接到下级号令,率领自己的小队去救援被绑架的CIA人质。虽然与家人材团圆没有多久,可是时辰为祖国效命是海豹突击队员的职责。洛克所率领的小队很快集结,依照计划前往目标地救援人质。不外,在救援进程中,洛克却发现了可骇份子布下的收罗密布,一场惊天诡计正在酝酿实施中。假如不能加以阻止,美国外乡极能够会蒙受严重的可骇攻击。是以,海豹突击小队,一刻都没有停息,在全球展开了一场大围歼……本片被以为是真人版的《战地3》,片方在全球多个地方取景,按照实在的事务改编。
◎获奖情况
  第70届金球奖 ?(2013)
  电影类最好原创歌曲(提名)
  
  第18届美国批评家挑选电影奖 ?(2013)
  最好歌曲(提名) 凯斯·厄本
  
  第14届美国青少年挑选奖 ?(2012)
  最好行动片(提名)
  1. Video
  2. ID                                       : 1
  3. Format                                   : HEVC
  4. Format/Info                              : High Efficiency Video Coding
  5. Format profile                           : [email protected]@Main
  6. Codec ID                                 : V_MPEGH/ISO/HEVC
  7. Duration                                 : 1 h 50 min
  8. Bit rate                                 : 15.0 Mb/s
  9. Width                                    : 3 840 pixels
  10. Height                                   : 2 160 pixels
  11. Display aspect ratio                     : 16:9
  12. Frame rate mode                          : Constant
  13. Frame rate                               : 23.976 (24000/1001/189150) FPS
  14. Color space                              : YUV
  15. Chroma subsampling                       : 4:2:0
  16. Bit depth                                : 8 bits
  17. Bits/(Pixel*Frame)                       : 0.075
  18. Stream size                              : 11.6 GiB (98%)
  19. Language                                 : English
  20. Default                                  : Yes
  21. Forced                                   : No
  22. Audio
  23. ID                                       : 2
  24. Format                                   : E-AC-3
  25. Format/Info                              : Enhanced AC-3
  26. Commercial name                          : Dolby Digital Plus
  27. Codec ID                                 : A_EAC3
  28. Duration                                 : 1 h 50 min
  29. Bit rate mode                            : Constant
  30. Bit rate                                 : 256 kb/s
  31. Channel(s)                               : 6 channels
  32. Channel layout                           : L R C LFE Ls Rs
  33. Sampling rate                            : 48.0 kHz
  34. Frame rate                               : 31.250 FPS (1536 SPF)
  35. Compression mode                         : Lossy
  36. Stream size                              : 202 MiB (2%)
  37. Title                                    : English
  38. Language                                 : English
  39. Service kind                             : Complete Main
  40. Default                                  : Yes
  41. Forced                                   : No
  42. Text
  43. ID                                       : 3
  44. Format                                   : UTF-8
  45. Codec ID                                 : S_TEXT/UTF8
  46. Codec ID/Info                            : UTF-8 Plain Text
  47. Duration                                 : 1 h 49 min
  48. Bit rate                                 : 52 b/s
  49. Count of elements                        : 1193
  50. Stream size                              : 42.5 KiB (0%)
  51. Title                                    : English (SDH)
  52. Language                                 : English
  53. Default                                  : No
  54. Forced                                   : No
复制代码






                                       
                                       

                                       
                                       
                                       




回复

使用道具 举报

蓝光币
2
发表于 2022-1-23 11:07:07 | 显示全部楼层
楼主发贴辛苦了,谢谢楼主分享!我觉得蓝光电影网是注册对了!
回复 支持 反对

使用道具 举报

蓝光币
43
发表于 2022-2-11 16:08:19 | 显示全部楼层

~ 珍惜+支持 ~
回复

使用道具 举报

蓝光币
43
发表于 2022-2-11 16:11:08 | 显示全部楼层
没有字幕吗?我怎么找不到
回复 支持 反对

使用道具 举报

蓝光币
22
发表于 2022-5-2 09:26:54 | 显示全部楼层
感谢楼主分享! 珍惜+支持 !
回复 支持 反对

使用道具 举报

懒得打字嘛,点击右侧快捷回复 【右侧内容,后台自定义】
您需要登录后才可以回帖 登录 | 立即加入

本版积分规则

Archiver|小黑屋| 蓝光电影网 |网站地图

Copyright © 2021 Comsenz Inc. Powered by 蓝光电影网

蓝光电影网

本站内容由用户自主分享和转载自互联网,转载目的在于传递更多信息,并不代表本网赞同其观点和对其真实性负责。

如有侵权、违反国家法律政策行为,请联系我们,我们会第一时间及时清除和处理!

举报反馈邮箱:[email protected]

快速回复 返回顶部 返回列表