找回密码

蓝光电影网

查看: 56|回复: 0

[2160p] 暗夜之女 Daughters.of.Darkness.1971.2160p.BluRay.x264.8bit.SDR.DTS-HD.MA.TrueHD.7.1.Atmos-SWTYBLZ 55.53GB

[复制链接]
蓝光币
1084
发表于 2020-11-1 12:37:18 | 显示全部楼层 |阅读模式


◎译  名 暗夜之女/Daughter of Darkness/黑暗
◎片  名 Les lèvres rouges
◎年  代 1971
◎产  地 比利时,法国,西德
◎类  别 可骇
◎语  言 荷兰语,英语
◎上映日期 1971-05-28
◎IMDb评分  6.6/10 from 4709 users
◎IMDb链接  https://www.imdb.com/title/tt0067690/
◎豆瓣评分 6.6/10 from 220 users
◎豆瓣链接 https://movie.douban.com/subject/1300178/
◎片  长 USA: 100 分钟(uncut version)
◎导  演 哈里·库默 Harry Kümel
◎编  剧 哈里·库默 Harry Kümel / 皮埃尔·德鲁奥 Pierre Drouot
◎主  演 德菲因·塞里格 Delphine Seyrig
       约翰·卡伦 John Karlen
       丹妮尔·维梅特 Danielle Ouimet
       安德烈娅·拉乌 Andrea Rau
       保罗·埃塞尔 Paul Esser
       Georges Jamin
       Joris Collet
       冯斯·罗德麦克斯 Fons Rademakers
◎标  签 吸血鬼 | 可骇 | 比利时 | 1970s | 法国 | 1971 | 德国 | 惊悚
◎简  介


  A 300-year-old lesbian vampire and her lover stay at a posh European resort. They seduce a sadistic husband and his beautiful wife. The husband is soon found dead, and his wife joins the two vampires.
  1. Video
  2. ID                                       : 1
  3. Format                                   : AVC
  4. Format/Info                              : Advanced Video Codec
  5. Format profile                           : [email protected]
  6. Format settings                          : CABAC / 5 Ref Frames
  7. Format settings, CABAC                   : Yes
  8. Format settings, Reference frames        : 5 frames
  9. Codec ID                                 : V_MPEG4/ISO/AVC
  10. Duration                                 : 1 h 40 min
  11. Bit rate                                 : 71.2 Mb/s
  12. Width                                    : 3 600 pixels
  13. Height                                   : 2 160 pixels
  14. Display aspect ratio                     : 5:3
  15. Frame rate mode                          : Constant
  16. Frame rate                               : 23.976 (24000/1001/189150) FPS
  17. Color space                              : YUV
  18. Chroma subsampling                       : 4:2:0
  19. Bit depth                                : 8 bits
  20. Scan type                                : Progressive
  21. Bits/(Pixel*Frame)                       : 0.382
  22. Stream size                              : 49.8 GiB (90%)
  23. Title                                    : Daughters.of.Darkness.1971.2160p.BluRay.x264.8bit.SDR.DTS-HD.MA.TrueHD.7.1.Atmos-SWTYBLZ
  24. Writing library                          : x264 core 157 r2935 545de2f
  25. Encoding settings                        : cabac=1 / ref=5 / deblock=1:-1:-1 / analyse=0x3:0x113 / me=umh / subme=10 / psy=1 / psy_rd=1.00:0.15 / mixed_ref=1 / me_range=48 / chroma_me=1 / trellis=2 / 8x8dct=1 / cqm=0 / deadzone=21,11 / fast_pskip=1 / chroma_qp_offset=-3 / threads=48 / lookahead_threads=4 / sliced_threads=0 / nr=0 / decimate=0 / interlaced=0 / bluray_compat=0 / constrained_intra=0 / bframes=3 / b_pyramid=2 / b_adapt=2 / b_bias=0 / direct=3 / weightb=1 / open_gop=0 / weightp=2 / keyint=250 / keyint_min=23 / scenecut=40 / intra_refresh=0 / rc_lookahead=50 / rc=crf / mbtree=1 / crf=22.0 / qcomp=0.60 / qpmin=0 / qpmax=69 / qpstep=4 / ip_ratio=1.40 / aq=1:1.00
  26. Default                                  : Yes
  27. Forced                                   : No
  28. Audio #1
  29. ID                                       : 2
  30. ID in the original source medium         : 4352 (0x1100)
  31. Format                                   : MLP FBA 16-ch
  32. Format/Info                              : Meridian Lossless Packing FBA with 16-channel presentation
  33. Commercial name                          : Dolby TrueHD with Dolby Atmos
  34. Codec ID                                 : A_TRUEHD
  35. Duration                                 : 1 h 40 min
  36. Bit rate mode                            : Variable
  37. Bit rate                                 : 3 294 kb/s
  38. Maximum bit rate                         : 4 953 kb/s
  39. Channel(s)                               : 8 channels
  40. Channel layout                           : L R C LFE Ls Rs Lb Rb
  41. Sampling rate                            : 48.0 kHz
  42. Frame rate                               : 1 200.000 FPS (40 SPF)
  43. Compression mode                         : Lossless
  44. Stream size                              : 2.30 GiB (4%)
  45. Title                                    : Daughters.of.Darkness.1971.2160p.BluRay.x264.8bit.SDR.DTS-HD.MA.TrueHD.7.1.Atmos-SWTYBLZ
  46. Language                                 : English
  47. Default                                  : Yes
  48. Forced                                   : No
  49. Original source medium                   : Blu-ray
  50. Number of dynamic objects                : 11
  51. Bed channel count                        : 1 channel
  52. Bed channel configuration                : LFE
  53. Audio #2
  54. ID                                       : 3
  55. Format                                   : DTS XLL
  56. Format/Info                              : Digital Theater Systems
  57. Commercial name                          : DTS-HD Master Audio
  58. Codec ID                                 : A_DTS
  59. Duration                                 : 1 h 40 min
  60. Bit rate mode                            : Variable
  61. Bit rate                                 : 3 735 kb/s
  62. Channel(s)                               : 8 channels
  63. Channel layout                           : C L R LFE Lb Rb Lss Rss
  64. Sampling rate                            : 48.0 kHz
  65. Frame rate                               : 93.750 FPS (512 SPF)
  66. Bit depth                                : 24 bits
  67. Compression mode                         : Lossless
  68. Stream size                              : 2.61 GiB (5%)
  69. Title                                    : Daughters.of.Darkness.1971.2160p.BluRay.x264.8bit.SDR.DTS-HD.MA.TrueHD.7.1.Atmos-SWTYBLZ
  70. Language                                 : English
  71. Default                                  : No
  72. Forced                                   : No
  73. Audio #3
  74. ID                                       : 4
  75. ID in the original source medium         : 4352 (0x1100)
  76. Format                                   : AC-3
  77. Format/Info                              : Audio Coding 3
  78. Commercial name                          : Dolby Digital
  79. Codec ID                                 : A_AC3
  80. Duration                                 : 1 h 40 min
  81. Bit rate mode                            : Constant
  82. Bit rate                                 : 640 kb/s
  83. Channel(s)                               : 6 channels
  84. Channel layout                           : L R C LFE Ls Rs
  85. Sampling rate                            : 48.0 kHz
  86. Frame rate                               : 31.250 FPS (1536 SPF)
  87. Compression mode                         : Lossy
  88. Stream size                              : 458 MiB (1%)
  89. Title                                    : Daughters.of.Darkness.1971.2160p.BluRay.x264.8bit.SDR.DTS-HD.MA.TrueHD.7.1.Atmos-SWTYBLZ
  90. Language                                 : English
  91. Service kind                             : Complete Main
  92. Default                                  : No
  93. Forced                                   : No
  94. Original source medium                   : Blu-ray
  95. Text #1
  96. ID                                       : 5
  97. Format                                   : UTF-8
  98. Codec ID                                 : S_TEXT/UTF8
  99. Codec ID/Info                            : UTF-8 Plain Text
  100. Duration                                 : 1 h 36 min
  101. Bit rate                                 : 36 b/s
  102. Count of elements                        : 817
  103. Stream size                              : 25.9 KiB (0%)
  104. Title                                    : English-SRT
  105. Language                                 : English
  106. Default                                  : Yes
  107. Forced                                   : No
  108. Text #2
  109. ID                                       : 6
  110. ID in the original source medium         : 4768 (0x12A0)
  111. Format                                   : PGS
  112. Muxing mode                              : zlib
  113. Codec ID                                 : S_HDMV/PGS
  114. Codec ID/Info                            : Picture based subtitle format used on BDs/HD-DVDs
  115. Duration                                 : 1 h 37 min
  116. Bit rate                                 : 27.1 kb/s
  117. Count of elements                        : 1864
  118. Stream size                              : 18.9 MiB (0%)
  119. Title                                    : English-PGS
  120. Language                                 : English
  121. Default                                  : No
  122. Forced                                   : No
  123. Original source medium                   : Blu-ray
  124. Text #3
  125. ID                                       : 7
  126. ID in the original source medium         : 4769 (0x12A1)
  127. Format                                   : PGS
  128. Muxing mode                              : zlib
  129. Codec ID                                 : S_HDMV/PGS
  130. Codec ID/Info                            : Picture based subtitle format used on BDs/HD-DVDs
  131. Duration                                 : 1 h 37 min
  132. Bit rate                                 : 24.6 kb/s
  133. Count of elements                        : 1642
  134. Stream size                              : 17.2 MiB (0%)
  135. Title                                    : French-PGS
  136. Language                                 : French
  137. Default                                  : No
  138. Forced                                   : No
  139. Original source medium                   : Blu-ray
  140. Text #4
  141. ID                                       : 8
  142. ID in the original source medium         : 4770 (0x12A2)
  143. Format                                   : PGS
  144. Muxing mode                              : zlib
  145. Codec ID                                 : S_HDMV/PGS
  146. Codec ID/Info                            : Picture based subtitle format used on BDs/HD-DVDs
  147. Duration                                 : 1 h 37 min
  148. Bit rate                                 : 23.4 kb/s
  149. Count of elements                        : 1642
  150. Stream size                              : 16.3 MiB (0%)
  151. Title                                    : Spanish-PGS
  152. Language                                 : Spanish
  153. Default                                  : No
  154. Forced                                   : No
  155. Original source medium                   : Blu-ray
  156. Text #5
  157. ID                                       : 9
  158. ID in the original source medium         : 4771 (0x12A3)
  159. Format                                   : PGS
  160. Muxing mode                              : zlib
  161. Codec ID                                 : S_HDMV/PGS
  162. Codec ID/Info                            : Picture based subtitle format used on BDs/HD-DVDs
  163. Duration                                 : 1 h 36 min
  164. Bit rate                                 : 23.8 kb/s
  165. Count of elements                        : 1684
  166. Stream size                              : 16.4 MiB (0%)
  167. Title                                    : English-PGS
  168. Language                                 : English
  169. Default                                  : No
  170. Forced                                   : No
  171. Original source medium                   : Blu-ray
  172. Menu
  173. 00:00:00.000                             : en:Chapter 01
  174. 00:01:15.075                             : en:Chapter 02
  175. 00:06:14.374                             : en:Chapter 03
  176. 00:11:05.790                             : en:Chapter 04
  177. 00:16:01.961                             : en:Chapter 05
  178. 00:18:45.999                             : en:Chapter 06
  179. 00:22:20.213                             : en:Chapter 07
  180. 00:27:59.928                             : en:Chapter 08
  181. 00:31:05.738                             : en:Chapter 09
  182. 00:37:56.983                             : en:Chapter 10
  183. 00:41:23.481                             : en:Chapter 11
  184. 00:45:43.657                             : en:Chapter 12
  185. 00:49:11.239                             : en:Chapter 13
  186. 00:52:46.079                             : en:Chapter 14
  187. 00:58:27.504                             : en:Chapter 15
  188. 01:03:12.663                             : en:Chapter 16
  189. 01:08:13.798                             : en:Chapter 17
  190. 01:12:44.360                             : en:Chapter 18
  191. 01:17:13.629                             : en:Chapter 19
  192. 01:20:24.820                             : en:Chapter 20
  193. 01:26:49.913                             : en:Chapter 21
  194. 01:33:53.628                             : en:Chapter 22
  195. 01:36:56.477                             : en:Chapter 23
  196. 01:38:54.929                             : en:Chapter 24
复制代码



                                       
                                       

                                       
                                       
                                       




暗夜之女 Daughters.of.Darkness.1971.2160p.BluRay.x264.8bit.SDR.DTS-HD.MA.TrueHD.7.1.Atmos-SWTYBLZ 55.53GB

Daughters.of.Darkness.1971.2160p.BluRay.x264.8bit.SDR.DTS-HD.MA.TrueHD.7.1.Atmos.zip

139.63 KB, 下载次数: 0, 下载积分: 蓝光币 -2

回复

使用道具 举报

懒得打字嘛,点击右侧快捷回复 【右侧内容,后台自定义】
您需要登录后才可以回帖 登录 | 立即加入

本版积分规则

Archiver|小黑屋| 蓝光电影网 |网站地图

Copyright © 2021 Comsenz Inc. Powered by 蓝光电影网

蓝光电影网

本站内容由用户自主分享和转载自互联网,转载目的在于传递更多信息,并不代表本网赞同其观点和对其真实性负责。

如有侵权、违反国家法律政策行为,请联系我们,我们会第一时间及时清除和处理!

举报反馈邮箱:[email protected]

快速回复 返回顶部 返回列表