找回密码

蓝光电影网

查看: 286|回复: 0

[UHD.HEVC] 夺宝奇兵 Indiana.Jones.and.the.Raiders.of.the.Lost.Ark.1981.2160p.BluRay.REMUX.HEVC.DTS-HD.MA.TrueHD.7.1.Atmos-FGT 53.75GB

[复制链接]
蓝光币
1080
发表于 2021-6-4 15:17:32 | 显示全部楼层 |阅读模式


◎译  名 夺宝奇兵/Indiana Jones and the Raiders of the Lost Ark/印地安纳?琼斯之夺宝奇兵/夺宝奇兵:法柜奇兵/法柜奇兵
◎片  名 Raiders of the Lost Ark
◎年  代 1981
◎产  地 美国,英国
◎类  别 行动 / 冒险
◎语  言 英语,德语,希伯来语,西班牙语,阿拉伯语,尼泊尔语
◎上映日期 1981-06-12(美国)
◎豆瓣评分 7.9/10 from 77016 users
◎豆瓣链接 https://movie.douban.com/subject/1296717/
◎片  长 115 分钟
◎导  演 史蒂文·斯皮尔伯格 Steven Spielberg
◎编  剧 劳伦斯·卡斯丹 Lawrence Kasdan / 乔治·卢卡斯 George Lucas / 菲利普·考夫曼 Philip Kaufman
◎主  演 哈里森·福特 Harrison Ford
       凯伦·阿兰 Karen Allen
       保罗·弗里曼 Paul Freeman
       约翰·瑞斯-戴维斯 John Rhys-Davies
       基兰·沙阿 Kiran Shah
       弗兰克·马歇尔 Frank Marshall
       乔治·哈里斯 George Harris
       阿尔弗雷德·莫里纳 Alfred Molina
       帕特·罗奇 Pat Roach
       安东尼·希金斯 Anthony Higgins
       罗纳德·莱西 Ronald Lacey
       丹霍姆·艾略特 Denholm Elliott
       特里·伦纳德 Terry Leonard
       Nick Gillard
◎标  签 冒险 | 斯皮尔伯格 | 美国 | 行动 | 探险 | 典范 | 美国电影 | 1981
◎简  介


  二战时代,希特勒在天下各地召集考古学家寻觅“失落的约柜”——圣经中指导希伯来人与天主交换的圣物,希特勒欲借其来护佑纳粹的战争。
  
  为了使希特勒的计划幻灭,印第安纳琼斯博士(Harrison Ford饰)奔赴尼泊尔,一边奋力挖掘千丝万缕,一边还要与无孔不入的纳粹份子周旋。凭仗着过人的聪明和异于凡人的胆子及大无畏的勇气,琼斯终究在罗马找到了指示约柜位置的太阳手杖,继而发现了约柜。
  
  就在大功乐成之际,纳粹军却并吞了成功果实,还将琼斯等人留在了蛇穴里!可是无往不胜的琼斯总是有法子死里逃生,并狠狠地还以色彩!
◎获奖情况
  第54届奥斯卡金像奖 ?(1982)
  最好影片(提名) 弗兰克·马歇尔
  最好导演(提名) 史蒂文·斯皮尔伯格
  最好摄影(提名) 道格拉斯·斯洛科姆
  最好剪辑 迈克尔·卡恩
  最好视觉结果 理查德·艾德兰德?/?乔·庄斯顿?/?基特·韦斯特?/?布鲁斯·尼科尔森
  最好声响 格雷格·兰达克?/?比尔·瓦尼?/?史蒂夫·马斯洛?/?罗伊·查尔曼
  最好艺术指导 诺曼·雷诺兹?/?莱斯利·迪利?/?迈克尔·福特
  最好原创配乐(提名) 约翰·威廉姆斯
  出格成就奖 理查德·路易斯·安德森?/?本·贝尔特
  1. Video
  2. ID                                       : 1
  3. ID in the original source medium         : 4113 (0x1011)
  4. Format                                   : HEVC
  5. Format/Info                              : High Efficiency Video Coding
  6. Format profile                           : Main [email protected]@High
  7. HDR format                               : SMPTE ST 2086, HDR10 compatible
  8. Codec ID                                 : V_MPEGH/ISO/HEVC
  9. Duration                                 : 1 h 55 min
  10. Bit rate                                 : 54.2 Mb/s
  11. Width                                    : 3 840 pixels
  12. Height                                   : 2 160 pixels
  13. Display aspect ratio                     : 16:9
  14. Frame rate mode                          : Constant
  15. Frame rate                               : 23.976 (24000/1001/189150) FPS
  16. Color space                              : YUV
  17. Chroma subsampling                       : 4:2:0 (Type 2)
  18. Bit depth                                : 10 bits
  19. Bits/(Pixel*Frame)                       : 0.272
  20. Stream size                              : 43.6 GiB (81%)
  21. Language                                 : English
  22. Default                                  : No
  23. Forced                                   : No
  24. Color range                              : Limited
  25. Color primaries                          : BT.2020
  26. Transfer characteristics                 : PQ
  27. Matrix coefficients                      : BT.2020 non-constant
  28. Mastering display color primaries        : Display P3
  29. Mastering display luminance              : min: 0.0050 cd/m2, max: 4000 cd/m2
  30. Maximum Content Light Level              : 1000 cd/m2
  31. Maximum Frame-Average Light Level        : 551 cd/m2
  32. Original source medium                   : Blu-ray
  33. Audio #1
  34. ID                                       : 2
  35. ID in the original source medium         : 4352 (0x1100)
  36. Format                                   : MLP FBA 16-ch
  37. Format/Info                              : Meridian Lossless Packing FBA with 16-channel presentation
  38. Commercial name                          : Dolby TrueHD with Dolby Atmos
  39. Codec ID                                 : A_TRUEHD
  40. Duration                                 : 1 h 55 min
  41. Bit rate mode                            : Variable
  42. Bit rate                                 : 3 761 kb/s
  43. Maximum bit rate                         : 5 607 kb/s
  44. Channel(s)                               : 8 channels
  45. Channel layout                           : L R C LFE Ls Rs Lb Rb
  46. Sampling rate                            : 48.0 kHz
  47. Frame rate                               : 1 200.000 FPS (40 SPF)
  48. Bit depth                                : 24 bits
  49. Compression mode                         : Lossless
  50. Stream size                              : 3.03 GiB (6%)
  51. Title                                    : TrueHD 7.1 Atmos
  52. Language                                 : English
  53. Default                                  : Yes
  54. Forced                                   : No
  55. Original source medium                   : Blu-ray
  56. Number of dynamic objects                : 11
  57. Bed channel count                        : 1 channel
  58. Bed channel configuration                : LFE
  59. Audio #2
  60. ID                                       : 3
  61. Format                                   : DTS XLL
  62. Format/Info                              : Digital Theater Systems
  63. Commercial name                          : DTS-HD Master Audio
  64. Codec ID                                 : A_DTS
  65. Duration                                 : 1 h 55 min
  66. Bit rate mode                            : Variable
  67. Bit rate                                 : 4 545 kb/s
  68. Channel(s)                               : 8 channels
  69. Channel layout                           : C L R LFE Lb Rb Lss Rss
  70. Sampling rate                            : 48.0 kHz
  71. Frame rate                               : 93.750 FPS (512 SPF)
  72. Bit depth                                : 24 bits
  73. Compression mode                         : Lossless
  74. Stream size                              : 3.66 GiB (7%)
  75. Title                                    : DTS-HD MA 7.1
  76. Language                                 : English
  77. Default                                  : No
  78. Forced                                   : No
  79. Audio #3
  80. ID                                       : 4
  81. ID in the original source medium         : 4352 (0x1100)
  82. Format                                   : AC-3
  83. Format/Info                              : Audio Coding 3
  84. Commercial name                          : Dolby Digital
  85. Format settings                          : Dolby Surround EX
  86. Codec ID                                 : A_AC3
  87. Duration                                 : 1 h 55 min
  88. Bit rate mode                            : Constant
  89. Bit rate                                 : 640 kb/s
  90. Channel(s)                               : 6 channels
  91. Channel layout                           : L R C LFE Ls Rs
  92. Sampling rate                            : 48.0 kHz
  93. Frame rate                               : 31.250 FPS (1536 SPF)
  94. Compression mode                         : Lossy
  95. Stream size                              : 528 MiB (1%)
  96. Title                                    : DD 5.1
  97. Language                                 : English
  98. Service kind                             : Complete Main
  99. Default                                  : No
  100. Forced                                   : No
  101. Original source medium                   : Blu-ray
  102. Audio #4
  103. ID                                       : 5
  104. ID in the original source medium         : 4353 (0x1101)
  105. Format                                   : AC-3
  106. Format/Info                              : Audio Coding 3
  107. Commercial name                          : Dolby Digital
  108. Codec ID                                 : A_AC3
  109. Duration                                 : 1 h 55 min
  110. Bit rate mode                            : Constant
  111. Bit rate                                 : 640 kb/s
  112. Channel(s)                               : 6 channels
  113. Channel layout                           : L R C LFE Ls Rs
  114. Sampling rate                            : 48.0 kHz
  115. Frame rate                               : 31.250 FPS (1536 SPF)
  116. Compression mode                         : Lossy
  117. Stream size                              : 528 MiB (1%)
  118. Title                                    : DD 5.1
  119. Language                                 : Spanish
  120. Service kind                             : Complete Main
  121. Default                                  : No
  122. Forced                                   : No
  123. Original source medium                   : Blu-ray
  124. Audio #5
  125. ID                                       : 6
  126. ID in the original source medium         : 4354 (0x1102)
  127. Format                                   : AC-3
  128. Format/Info                              : Audio Coding 3
  129. Commercial name                          : Dolby Digital
  130. Format settings                          : Dolby Surround
  131. Codec ID                                 : A_AC3
  132. Duration                                 : 1 h 55 min
  133. Bit rate mode                            : Constant
  134. Bit rate                                 : 224 kb/s
  135. Channel(s)                               : 2 channels
  136. Channel layout                           : L R
  137. Sampling rate                            : 48.0 kHz
  138. Frame rate                               : 31.250 FPS (1536 SPF)
  139. Compression mode                         : Lossy
  140. Stream size                              : 185 MiB (0%)
  141. Title                                    : DD 2.0
  142. Language                                 : Spanish
  143. Service kind                             : Complete Main
  144. Default                                  : No
  145. Forced                                   : No
  146. Original source medium                   : Blu-ray
  147. Audio #6
  148. ID                                       : 7
  149. ID in the original source medium         : 4355 (0x1103)
  150. Format                                   : AC-3
  151. Format/Info                              : Audio Coding 3
  152. Commercial name                          : Dolby Digital
  153. Codec ID                                 : A_AC3
  154. Duration                                 : 1 h 55 min
  155. Bit rate mode                            : Constant
  156. Bit rate                                 : 640 kb/s
  157. Channel(s)                               : 6 channels
  158. Channel layout                           : L R C LFE Ls Rs
  159. Sampling rate                            : 48.0 kHz
  160. Frame rate                               : 31.250 FPS (1536 SPF)
  161. Compression mode                         : Lossy
  162. Stream size                              : 528 MiB (1%)
  163. Title                                    : DD 5.1
  164. Language                                 : French
  165. Service kind                             : Complete Main
  166. Default                                  : No
  167. Forced                                   : No
  168. Original source medium                   : Blu-ray
  169. Audio #7
  170. ID                                       : 8
  171. ID in the original source medium         : 4356 (0x1104)
  172. Format                                   : AC-3
  173. Format/Info                              : Audio Coding 3
  174. Commercial name                          : Dolby Digital
  175. Codec ID                                 : A_AC3
  176. Duration                                 : 1 h 55 min
  177. Bit rate mode                            : Constant
  178. Bit rate                                 : 640 kb/s
  179. Channel(s)                               : 6 channels
  180. Channel layout                           : L R C LFE Ls Rs
  181. Sampling rate                            : 48.0 kHz
  182. Frame rate                               : 31.250 FPS (1536 SPF)
  183. Compression mode                         : Lossy
  184. Stream size                              : 528 MiB (1%)
  185. Title                                    : DD 5.1
  186. Language                                 : Italian
  187. Service kind                             : Complete Main
  188. Default                                  : No
  189. Forced                                   : No
  190. Original source medium                   : Blu-ray
  191. Audio #8
  192. ID                                       : 9
  193. ID in the original source medium         : 4357 (0x1105)
  194. Format                                   : AC-3
  195. Format/Info                              : Audio Coding 3
  196. Commercial name                          : Dolby Digital
  197. Format settings                          : Dolby Surround
  198. Codec ID                                 : A_AC3
  199. Duration                                 : 1 h 55 min
  200. Bit rate mode                            : Constant
  201. Bit rate                                 : 224 kb/s
  202. Channel(s)                               : 2 channels
  203. Channel layout                           : L R
  204. Sampling rate                            : 48.0 kHz
  205. Frame rate                               : 31.250 FPS (1536 SPF)
  206. Compression mode                         : Lossy
  207. Stream size                              : 185 MiB (0%)
  208. Title                                    : DD 2.0
  209. Language                                 : Italian
  210. Service kind                             : Complete Main
  211. Default                                  : No
  212. Forced                                   : No
  213. Original source medium                   : Blu-ray
  214. Audio #9
  215. ID                                       : 10
  216. ID in the original source medium         : 4358 (0x1106)
  217. Format                                   : AC-3
  218. Format/Info                              : Audio Coding 3
  219. Commercial name                          : Dolby Digital
  220. Codec ID                                 : A_AC3
  221. Duration                                 : 1 h 55 min
  222. Bit rate mode                            : Constant
  223. Bit rate                                 : 640 kb/s
  224. Channel(s)                               : 6 channels
  225. Channel layout                           : L R C LFE Ls Rs
  226. Sampling rate                            : 48.0 kHz
  227. Frame rate                               : 31.250 FPS (1536 SPF)
  228. Compression mode                         : Lossy
  229. Stream size                              : 528 MiB (1%)
  230. Title                                    : DD 5.1
  231. Language                                 : Japanese
  232. Service kind                             : Complete Main
  233. Default                                  : No
  234. Forced                                   : No
  235. Original source medium                   : Blu-ray
  236. Audio #10
  237. ID                                       : 11
  238. ID in the original source medium         : 4359 (0x1107)
  239. Format                                   : AC-3
  240. Format/Info                              : Audio Coding 3
  241. Commercial name                          : Dolby Digital
  242. Format settings                          : Dolby Surround
  243. Codec ID                                 : A_AC3
  244. Duration                                 : 1 h 55 min
  245. Bit rate mode                            : Constant
  246. Bit rate                                 : 224 kb/s
  247. Channel(s)                               : 2 channels
  248. Channel layout                           : L R
  249. Sampling rate                            : 48.0 kHz
  250. Frame rate                               : 31.250 FPS (1536 SPF)
  251. Compression mode                         : Lossy
  252. Stream size                              : 185 MiB (0%)
  253. Title                                    : DD 2.0
  254. Language                                 : Japanese
  255. Service kind                             : Complete Main
  256. Default                                  : No
  257. Forced                                   : No
  258. Original source medium                   : Blu-ray
  259. Audio #11
  260. ID                                       : 12
  261. ID in the original source medium         : 4360 (0x1108)
  262. Format                                   : AC-3
  263. Format/Info                              : Audio Coding 3
  264. Commercial name                          : Dolby Digital
  265. Format settings                          : Dolby Surround
  266. Codec ID                                 : A_AC3
  267. Duration                                 : 1 h 55 min
  268. Bit rate mode                            : Constant
  269. Bit rate                                 : 224 kb/s
  270. Channel(s)                               : 2 channels
  271. Channel layout                           : L R
  272. Sampling rate                            : 48.0 kHz
  273. Frame rate                               : 31.250 FPS (1536 SPF)
  274. Compression mode                         : Lossy
  275. Stream size                              : 185 MiB (0%)
  276. Title                                    : DD 2.0
  277. Language                                 : Russian
  278. Service kind                             : Complete Main
  279. Default                                  : No
  280. Forced                                   : No
  281. Original source medium                   : Blu-ray
  282. Text #1
  283. ID                                       : 13
  284. Format                                   : UTF-8
  285. Codec ID                                 : S_TEXT/UTF8
  286. Codec ID/Info                            : UTF-8 Plain Text
  287. Duration                                 : 1 h 48 min
  288. Bit rate                                 : 34 b/s
  289. Count of elements                        : 999
  290. Stream size                              : 26.9 KiB (0%)
  291. Title                                    : English-SRT
  292. Language                                 : English
  293. Default                                  : Yes
  294. Forced                                   : No
  295. Text #2
  296. ID                                       : 14
  297. ID in the original source medium         : 4768 (0x12A0)
  298. Format                                   : PGS
  299. Muxing mode                              : zlib
  300. Codec ID                                 : S_HDMV/PGS
  301. Codec ID/Info                            : Picture based subtitle format used on BDs/HD-DVDs
  302. Duration                                 : 1 h 48 min
  303. Bit rate                                 : 21.9 kb/s
  304. Count of elements                        : 2014
  305. Stream size                              : 17.0 MiB (0%)
  306. Language                                 : English
  307. Default                                  : No
  308. Forced                                   : No
  309. Original source medium                   : Blu-ray
  310. Text #3
  311. ID                                       : 15
  312. ID in the original source medium         : 4769 (0x12A1)
  313. Format                                   : PGS
  314. Muxing mode                              : zlib
  315. Codec ID                                 : S_HDMV/PGS
  316. Codec ID/Info                            : Picture based subtitle format used on BDs/HD-DVDs
  317. Duration                                 : 1 h 49 min
  318. Bit rate                                 : 26.1 kb/s
  319. Count of elements                        : 2450
  320. Stream size                              : 20.4 MiB (0%)
  321. Language                                 : English
  322. Default                                  : No
  323. Forced                                   : No
  324. Original source medium                   : Blu-ray
  325. Text #4
  326. ID                                       : 16
  327. ID in the original source medium         : 4770 (0x12A2)
  328. Format                                   : PGS
  329. Muxing mode                              : zlib
  330. Codec ID                                 : S_HDMV/PGS
  331. Codec ID/Info                            : Picture based subtitle format used on BDs/HD-DVDs
  332. Duration                                 : 1 h 52 min
  333. Bit rate                                 : 12.2 kb/s
  334. Count of elements                        : 1184
  335. Stream size                              : 9.90 MiB (0%)
  336. Language                                 : Chinese
  337. Default                                  : No
  338. Forced                                   : No
  339. Original source medium                   : Blu-ray
  340. Text #5
  341. ID                                       : 17
  342. ID in the original source medium         : 4771 (0x12A3)
  343. Format                                   : PGS
  344. Muxing mode                              : zlib
  345. Codec ID                                 : S_HDMV/PGS
  346. Codec ID/Info                            : Picture based subtitle format used on BDs/HD-DVDs
  347. Duration                                 : 1 h 53 min
  348. Bit rate                                 : 16.1 kb/s
  349. Count of elements                        : 1222
  350. Stream size                              : 13.0 MiB (0%)
  351. Language                                 : Danish
  352. Default                                  : No
  353. Forced                                   : No
  354. Original source medium                   : Blu-ray
  355. Text #6
  356. ID                                       : 18
  357. ID in the original source medium         : 4772 (0x12A4)
  358. Format                                   : PGS
  359. Muxing mode                              : zlib
  360. Codec ID                                 : S_HDMV/PGS
  361. Codec ID/Info                            : Picture based subtitle format used on BDs/HD-DVDs
  362. Duration                                 : 1 h 54 min
  363. Bit rate                                 : 16.6 kb/s
  364. Count of elements                        : 1186
  365. Stream size                              : 13.6 MiB (0%)
  366. Language                                 : Spanish
  367. Default                                  : No
  368. Forced                                   : No
  369. Original source medium                   : Blu-ray
  370. Text #7
  371. ID                                       : 19
  372. ID in the original source medium         : 4773 (0x12A5)
  373. Format                                   : PGS
  374. Muxing mode                              : zlib
  375. Codec ID                                 : S_HDMV/PGS
  376. Codec ID/Info                            : Picture based subtitle format used on BDs/HD-DVDs
  377. Duration                                 : 1 h 54 min
  378. Bit rate                                 : 17.0 kb/s
  379. Count of elements                        : 1176
  380. Stream size                              : 13.9 MiB (0%)
  381. Language                                 : French
  382. Default                                  : No
  383. Forced                                   : No
  384. Original source medium                   : Blu-ray
  385. Text #8
  386. ID                                       : 20
  387. ID in the original source medium         : 4774 (0x12A6)
  388. Format                                   : PGS
  389. Muxing mode                              : zlib
  390. Codec ID                                 : S_HDMV/PGS
  391. Codec ID/Info                            : Picture based subtitle format used on BDs/HD-DVDs
  392. Duration                                 : 1 h 54 min
  393. Bit rate                                 : 17.6 kb/s
  394. Count of elements                        : 1194
  395. Stream size                              : 14.5 MiB (0%)
  396. Language                                 : Italian
  397. Default                                  : No
  398. Forced                                   : No
  399. Original source medium                   : Blu-ray
  400. Text #9
  401. ID                                       : 21
  402. ID in the original source medium         : 4775 (0x12A7)
  403. Format                                   : PGS
  404. Muxing mode                              : zlib
  405. Codec ID                                 : S_HDMV/PGS
  406. Codec ID/Info                            : Picture based subtitle format used on BDs/HD-DVDs
  407. Duration                                 : 1 h 48 min
  408. Bit rate                                 : 13.5 kb/s
  409. Count of elements                        : 1352
  410. Stream size                              : 10.5 MiB (0%)
  411. Language                                 : Japanese
  412. Default                                  : No
  413. Forced                                   : No
  414. Original source medium                   : Blu-ray
  415. Text #10
  416. ID                                       : 22
  417. ID in the original source medium         : 4776 (0x12A8)
  418. Format                                   : PGS
  419. Muxing mode                              : zlib
  420. Codec ID                                 : S_HDMV/PGS
  421. Codec ID/Info                            : Picture based subtitle format used on BDs/HD-DVDs
  422. Duration                                 : 1 h 54 min
  423. Bit rate                                 : 11.5 kb/s
  424. Count of elements                        : 1548
  425. Stream size                              : 9.46 MiB (0%)
  426. Language                                 : Korean
  427. Default                                  : No
  428. Forced                                   : No
  429. Original source medium                   : Blu-ray
  430. Text #11
  431. ID                                       : 23
  432. ID in the original source medium         : 4777 (0x12A9)
  433. Format                                   : PGS
  434. Muxing mode                              : zlib
  435. Codec ID                                 : S_HDMV/PGS
  436. Codec ID/Info                            : Picture based subtitle format used on BDs/HD-DVDs
  437. Duration                                 : 1 h 54 min
  438. Bit rate                                 : 13.3 kb/s
  439. Count of elements                        : 1558
  440. Stream size                              : 10.9 MiB (0%)
  441. Language                                 : Chinese
  442. Default                                  : No
  443. Forced                                   : No
  444. Original source medium                   : Blu-ray
  445. Text #12
  446. ID                                       : 24
  447. ID in the original source medium         : 4778 (0x12AA)
  448. Format                                   : PGS
  449. Muxing mode                              : zlib
  450. Codec ID                                 : S_HDMV/PGS
  451. Codec ID/Info                            : Picture based subtitle format used on BDs/HD-DVDs
  452. Duration                                 : 1 h 53 min
  453. Bit rate                                 : 16.1 kb/s
  454. Count of elements                        : 1134
  455. Stream size                              : 13.0 MiB (0%)
  456. Language                                 : Dutch
  457. Default                                  : No
  458. Forced                                   : No
  459. Original source medium                   : Blu-ray
  460. Text #13
  461. ID                                       : 25
  462. ID in the original source medium         : 4779 (0x12AB)
  463. Format                                   : PGS
  464. Muxing mode                              : zlib
  465. Codec ID                                 : S_HDMV/PGS
  466. Codec ID/Info                            : Picture based subtitle format used on BDs/HD-DVDs
  467. Duration                                 : 1 h 53 min
  468. Bit rate                                 : 14.8 kb/s
  469. Count of elements                        : 1168
  470. Stream size                              : 12.0 MiB (0%)
  471. Language                                 : Norwegian
  472. Default                                  : No
  473. Forced                                   : No
  474. Original source medium                   : Blu-ray
  475. Text #14
  476. ID                                       : 26
  477. ID in the original source medium         : 4780 (0x12AC)
  478. Format                                   : PGS
  479. Muxing mode                              : zlib
  480. Codec ID                                 : S_HDMV/PGS
  481. Codec ID/Info                            : Picture based subtitle format used on BDs/HD-DVDs
  482. Duration                                 : 1 h 54 min
  483. Bit rate                                 : 16.5 kb/s
  484. Count of elements                        : 1158
  485. Stream size                              : 13.5 MiB (0%)
  486. Language                                 : Russian
  487. Default                                  : No
  488. Forced                                   : No
  489. Original source medium                   : Blu-ray
  490. Text #15
  491. ID                                       : 27
  492. ID in the original source medium         : 4781 (0x12AD)
  493. Format                                   : PGS
  494. Muxing mode                              : zlib
  495. Codec ID                                 : S_HDMV/PGS
  496. Codec ID/Info                            : Picture based subtitle format used on BDs/HD-DVDs
  497. Duration                                 : 1 h 54 min
  498. Bit rate                                 : 16.6 kb/s
  499. Count of elements                        : 1690
  500. Stream size                              : 13.6 MiB (0%)
  501. Language                                 : Chinese
  502. Default                                  : No
  503. Forced                                   : No
  504. Original source medium                   : Blu-ray
  505. Text #16
  506. ID                                       : 28
  507. ID in the original source medium         : 4782 (0x12AE)
  508. Format                                   : PGS
  509. Muxing mode                              : zlib
  510. Codec ID                                 : S_HDMV/PGS
  511. Codec ID/Info                            : Picture based subtitle format used on BDs/HD-DVDs
  512. Duration                                 : 1 h 53 min
  513. Bit rate                                 : 16.3 kb/s
  514. Count of elements                        : 1146
  515. Stream size                              : 13.2 MiB (0%)
  516. Language                                 : Finnish
  517. Default                                  : No
  518. Forced                                   : No
  519. Original source medium                   : Blu-ray
  520. Text #17
  521. ID                                       : 29
  522. ID in the original source medium         : 4783 (0x12AF)
  523. Format                                   : PGS
  524. Muxing mode                              : zlib
  525. Codec ID                                 : S_HDMV/PGS
  526. Codec ID/Info                            : Picture based subtitle format used on BDs/HD-DVDs
  527. Duration                                 : 1 h 53 min
  528. Bit rate                                 : 14.5 kb/s
  529. Count of elements                        : 1168
  530. Stream size                              : 11.7 MiB (0%)
  531. Language                                 : Swedish
  532. Default                                  : No
  533. Forced                                   : No
  534. Original source medium                   : Blu-ray
  535. Text #18
  536. ID                                       : 30
  537. ID in the original source medium         : 4784 (0x12B0)
  538. Format                                   : PGS
  539. Muxing mode                              : zlib
  540. Codec ID                                 : S_HDMV/PGS
  541. Codec ID/Info                            : Picture based subtitle format used on BDs/HD-DVDs
  542. Duration                                 : 1 h 54 min
  543. Bit rate                                 : 14.2 kb/s
  544. Count of elements                        : 1620
  545. Stream size                              : 11.6 MiB (0%)
  546. Language                                 : Thai
  547. Default                                  : No
  548. Forced                                   : No
  549. Original source medium                   : Blu-ray
  550. Text #19
  551. ID                                       : 31
  552. ID in the original source medium         : 4785 (0x12B1)
  553. Format                                   : PGS
  554. Muxing mode                              : zlib
  555. Codec ID                                 : S_HDMV/PGS
  556. Codec ID/Info                            : Picture based subtitle format used on BDs/HD-DVDs
  557. Duration                                 : 1 h 48 min
  558. Bit rate                                 : 83 b/s
  559. Count of elements                        : 10
  560. Stream size                              : 66.4 KiB (0%)
  561. Language                                 : Japanese
  562. Default                                  : No
  563. Forced                                   : No
  564. Original source medium                   : Blu-ray
  565. Menu
  566. 00:00:00.000                             : Chapter 01
  567. 00:03:16.404                             : Chapter 02
  568. 00:05:44.635                             : Chapter 03
  569. 00:09:50.923                             : Chapter 04
  570. 00:12:49.643                             : Chapter 05
  571. 00:15:23.631                             : Chapter 06
  572. 00:20:27.142                             : Chapter 07
  573. 00:22:58.001                             : Chapter 08
  574. 00:28:51.187                             : Chapter 09
  575. 00:33:42.311                             : Chapter 10
  576. 00:36:23.389                             : Chapter 11
  577. 00:40:04.652                             : Chapter 12
  578. 00:42:16.158                             : Chapter 13
  579. 00:46:41.381                             : Chapter 14
  580. 00:49:32.928                             : Chapter 15
  581. 00:51:00.932                             : Chapter 16
  582. 00:55:10.765                             : Chapter 17
  583. 00:58:33.051                             : Chapter 18
  584. 01:03:05.740                             : Chapter 19
  585. 01:08:26.143                             : Chapter 20
  586. 01:10:25.346                             : Chapter 21
  587. 01:15:33.153                             : Chapter 22
  588. 01:22:24.356                             : Chapter 23
  589. 01:25:43.763                             : Chapter 24
  590. 01:29:57.517                             : Chapter 25
  591. 01:34:30.539                             : Chapter 26
  592. 01:38:06.088                             : Chapter 27
  593. 01:41:06.018                             : Chapter 28
  594. 01:44:06.907                             : Chapter 29
  595. 01:47:01.415                             : Chapter 30
  596. 01:49:05.664                             : Chapter 31
复制代码




                                       
                                       

                                       
                                       
                                       




夺宝奇兵 Indiana.Jones.and.the.Raiders.of.the.Lost.Ark.1981.2160p.BluRay.REMUX.HEVC.DTS-HD.MA.TrueHD.7.1.Atmos-FGT 53.75GB

Indiana.Jones.and.the.Raiders.of.the.Lost.Ark.1981.2160p.BluRay.REMUX.HEVC.DTS-H.torrent

135.1 KB, 下载次数: 35, 下载积分: 蓝光币 -2

回复

使用道具 举报

懒得打字嘛,点击右侧快捷回复 【右侧内容,后台自定义】
您需要登录后才可以回帖 登录 | 立即加入

本版积分规则

Archiver|小黑屋| 蓝光电影网 |网站地图

Copyright © 2021 Comsenz Inc. Powered by 蓝光电影网

蓝光电影网

本站内容由用户自主分享和转载自互联网,转载目的在于传递更多信息,并不代表本网赞同其观点和对其真实性负责。

如有侵权、违反国家法律政策行为,请联系我们,我们会第一时间及时清除和处理!

举报反馈邮箱:[email protected]

快速回复 返回顶部 返回列表