找回密码

蓝光电影网

查看: 67|回复: 0

[2160p] 艳舞女郎/美国舞娘 Showgirls.1995.2160p.BluRay.x265.10bit.SDR.DTS-HD.MA.5.1-SWTYBLZ 36.59GB

[复制链接]
蓝光币
1080
发表于 2020-11-1 09:50:03 | 显示全部楼层 |阅读模式


◎译  名 艳舞女郎/美国舞娘
◎片  名 Showgirls
◎年  代 1995
◎产  地 法国,美国
◎类  别 剧情 / 情色
◎语  言 英语
◎上映日期 1995-09-22
◎IMDb评分  4.9/10 from 61546 users
◎IMDb链接  https://www.imdb.com/title/tt0114436/
◎豆瓣评分 6.9/10 from 8888 users
◎豆瓣链接 https://movie.douban.com/subject/1297320/
◎片  长 128分钟
◎导  演 保罗·范霍文 Paul Verhoeven
◎编  剧 乔·埃泽特哈斯 Joe Eszterhas
◎主  演 伊丽莎白·伯克利 Elizabeth Berkley
       凯尔·麦克拉克伦 Kyle MacLachlan
       吉娜·格申 Gina Gershon
       格伦·普拉默 Glenn Plummer
       罗伯特·戴维 Robert Davi
       琳·图齐 Lin Tucci
       Timothy Scott Ralston
       阿尔·罗斯西奥 Al Ruscio
       Michael Shure
       Alexander Zale
       罗伯特·斯莫特 Teo
       凯文·亚历山大·斯蒂亚 Kevin Alexander Stea
       杜威·韦伯 Dewey Weber
       Melissa Williams
       安东尼·贝克曼 Anthony Backman
       户田惠子 Keiko Toda
       Lindsley Allen
       威廉姆·肖克利 William Shockley
       吉娜·拉维拉 Gina Ravera
       Joe Everett Michaels
       Michelle Johnston
       阿兰·拉琴斯 Alan Rachins
       马特·巴特格里亚 Matt Battaglia
       吉姆·怀斯 Jim Wise
       Richard Roraback
       卡瑞·安·因娜芭 Carrie Ann Inaba
       Rena Riffel
       杰弗·卡伦 Geoff Callan
       埃里克·里特尔 Eric Ritter
       Kristen Knittle
       Amber Herrel
       米琪杜兰 Micki Duran
       亚历山大·福克 Alexander Folk
       特雷西·迪奥里奥 Tyce Diorio
       Christopher D. Childers
       Ungela Brockman
       帕特里克·布利斯托夫 Patrick Bristow
       丽莎·博伊尔 Lisa Boyle
       Bobbie Phillips
◎标  签 情色 | 美国 | 歌舞 | 美国电影 | 剧情 | 1995 | 舞蹈 | 电影
◎简  介


  诺密(伊丽莎白·伯克利 Elizabeth Berkley 饰)是一位性感标致的女郎,年轻的她来到拉斯维加斯淘金,希望在这里能找到令她安身的工作。没想到,刚到此地,便被小混混骗走了行李,身无分文的她碰见了化装师克里斯特(吉娜·格申 Gina Gershon 饰),两人一见仍旧结下了深厚的友谊。诺密发现,想在拉斯维加斯获得一个饭碗实在是太难了,酷爱舞蹈的她最初决议加入当地最著名的艳舞团队。经过层层提拔,诺密获得了她的脚色,而一旦起头涉入这个复杂的声色天下中,她沦亡的速度就再也不会停止。原本自负自重的诺密,居然也起头为了向上成长而出售自己的精神。
  
  诺密越来越著名,但她和克里斯特的间隔也越来越远。为了填补这段友谊,诺密放置了克里斯特和她的偶像歌手碰头,没想到看似偶像实则禽兽,克里斯特惨遭侮辱住进医院,也击碎了诺密关于名声和金钱的最初的幻觉。
  1. Video
  2. ID                                       : 1
  3. Format                                   : HEVC
  4. Format/Info                              : High Efficiency Video Coding
  5. Format profile                           : Main [email protected]@High
  6. Codec ID                                 : V_MPEGH/ISO/HEVC
  7. Duration                                 : 2 h 11 min
  8. Bit rate                                 : 36.9 Mb/s
  9. Width                                    : 3 840 pixels
  10. Height                                   : 1 632 pixels
  11. Display aspect ratio                     : 2.35:1
  12. Frame rate mode                          : Constant
  13. Frame rate                               : 24.000 FPS
  14. Color space                              : YUV
  15. Chroma subsampling                       : 4:2:0
  16. Bit depth                                : 10 bits
  17. Bits/(Pixel*Frame)                       : 0.245
  18. Stream size                              : 33.9 GiB (93%)
  19. Title                                    : Showgirls.1995.2160p.BluRay.x265.10bit.SDR.DTS-HD.MA.5.1-SWTYBLZ
  20. Writing library                          : x265 3.0ed72af837053:[Windows][GCC 8.2.0][64 bit] 10bit
  21. Encoding settings                        : cpuid=1111039 / frame-threads=6 / numa-pools=40 / wpp / no-pmode / no-pme / no-psnr / no-ssim / log-level=2 / input-csp=1 / input-res=3840x1632 / interlace=0 / total-frames=189139 / level-idc=51 / high-tier=1 / uhd-bd=0 / ref=3 / no-allow-non-conformance / repeat-headers / annexb / aud / hrd / info / hash=0 / no-temporal-layers / no-open-gop / min-keyint=1 / keyint=24 / gop-lookahead=0 / bframes=4 / b-adapt=2 / b-pyramid / bframe-bias=0 / rc-lookahead=25 / lookahead-slices=4 / scenecut=40 / radl=0 / no-splice / no-intra-refresh / ctu=64 / min-cu-size=8 / no-rect / no-amp / max-tu-size=32 / tu-inter-depth=1 / tu-intra-depth=1 / limit-tu=0 / rdoq-level=0 / dynamic-rd=0.00 / no-ssim-rd / signhide / no-tskip / nr-intra=0 / nr-inter=0 / no-constrained-intra / strong-intra-smoothing / max-merge=2 / limit-refs=3 / no-limit-modes / me=1 / subme=2 / merange=57 / temporal-mvp / weightp / no-weightb / no-analyze-src-pics / deblock=0:0 / no-sao / no-sao-non-deblock / rd=3 / no-early-skip / rskip / no-fast-intra / no-tskip-fast / no-cu-lossless / no-b-intra / no-splitrd-skip / rdpenalty=0 / psy-rd=2.00 / psy-rdoq=0.00 / no-rd-refine / no-lossless / cbqpoffs=0 / crqpoffs=0 / rc=crf / crf=19.0 / qcomp=0.60 / qpstep=4 / stats-write=0 / stats-read=0 / vbv-maxrate=160000 / vbv-bufsize=160000 / vbv-init=0.9 / crf-max=0.0 / crf-min=0.0 / ipratio=1.40 / pbratio=1.30 / aq-mode=1 / aq-strength=1.00 / cutree / zone-count=0 / no-strict-cbr / qg-size=32 / no-rc-grain / qpmax=69 / qpmin=0 / no-const-vbv / sar=1 / overscan=0 / videoformat=5 / range=0 / colorprim=2 / transfer=2 / colormatrix=2 / chromaloc=0 / display-window=0 / max-cll=0,0 / min-luma=0 / max-luma=1023 / log2-max-poc-lsb=8 / vui-timing-info / vui-hrd-info / slices=1 / opt-qp-pps / opt-ref-list-length-pps / no-multi-pass-opt-rps / scenecut-bias=0.05 / no-opt-cu-delta-qp / no-aq-motion / no-hdr / no-hdr-opt / no-dhdr10-opt / no-idr-recovery-sei / analysis-reuse-level=5 / scale-factor=0 / refine-intra=0 / refine-inter=0 / refine-mv=0 / refine-ctu-distortion=0 / no-limit-sao / ctu-info=0 / no-lowpass-dct / refine-analysis-type=0 / copy-pic=1 / max-ausize-factor=1.0 / no-dynamic-refine / no-single-sei / no-hevc-aq / qp-adaptation-range=1.00
  22. Language                                 : English
  23. Default                                  : Yes
  24. Forced                                   : No
  25. Audio #1
  26. ID                                       : 2
  27. ID in the original source medium         : 4353 (0x1101)
  28. Format                                   : DTS XLL
  29. Format/Info                              : Digital Theater Systems
  30. Commercial name                          : DTS-HD Master Audio
  31. Codec ID                                 : A_DTS
  32. Duration                                 : 2 h 11 min
  33. Bit rate mode                            : Variable
  34. Bit rate                                 : 2 157 kb/s
  35. Channel(s)                               : 6 channels
  36. Channel layout                           : C L R Ls Rs LFE
  37. Sampling rate                            : 48.0 kHz
  38. Frame rate                               : 93.750 FPS (512 SPF)
  39. Bit depth                                : 16 bits
  40. Compression mode                         : Lossless
  41. Stream size                              : 1.98 GiB (5%)
  42. Title                                    : Showgirls.1995.2160p.BluRay.x265.10bit.SDR.DTS-HD.MA.5.1-SWTYBLZ
  43. Language                                 : English
  44. Default                                  : Yes
  45. Forced                                   : No
  46. Original source medium                   : Blu-ray
  47. Audio #2
  48. ID                                       : 3
  49. Format                                   : AC-3
  50. Format/Info                              : Audio Coding 3
  51. Commercial name                          : Dolby Digital
  52. Codec ID                                 : A_AC3
  53. Duration                                 : 2 h 11 min
  54. Bit rate mode                            : Constant
  55. Bit rate                                 : 640 kb/s
  56. Channel(s)                               : 6 channels
  57. Channel layout                           : L R C LFE Ls Rs
  58. Sampling rate                            : 48.0 kHz
  59. Frame rate                               : 31.250 FPS (1536 SPF)
  60. Compression mode                         : Lossy
  61. Stream size                              : 601 MiB (2%)
  62. Title                                    : Showgirls.1995.2160p.BluRay.x265.10bit.SDR.DTS-HD.MA.5.1-SWTYBLZ
  63. Language                                 : English
  64. Service kind                             : Complete Main
  65. Default                                  : No
  66. Forced                                   : No
  67. Text #1
  68. ID                                       : 4
  69. Format                                   : UTF-8
  70. Codec ID                                 : S_TEXT/UTF8
  71. Codec ID/Info                            : UTF-8 Plain Text
  72. Duration                                 : 2 h 1 min
  73. Bit rate                                 : 48 b/s
  74. Count of elements                        : 1094
  75. Stream size                              : 42.8 KiB (0%)
  76. Title                                    : English-SRT
  77. Language                                 : English
  78. Default                                  : Yes
  79. Forced                                   : No
  80. Text #2
  81. ID                                       : 5
  82. ID in the original source medium         : 4768 (0x12A0)
  83. Format                                   : PGS
  84. Muxing mode                              : zlib
  85. Codec ID                                 : S_HDMV/PGS
  86. Codec ID/Info                            : Picture based subtitle format used on BDs/HD-DVDs
  87. Duration                                 : 2 h 2 min
  88. Bit rate                                 : 44.2 kb/s
  89. Count of elements                        : 2354
  90. Stream size                              : 38.8 MiB (0%)
  91. Title                                    : German-PGS
  92. Language                                 : German
  93. Default                                  : No
  94. Forced                                   : No
  95. Original source medium                   : Blu-ray
  96. Text #3
  97. ID                                       : 6
  98. ID in the original source medium         : 4769 (0x12A1)
  99. Format                                   : PGS
  100. Muxing mode                              : zlib
  101. Codec ID                                 : S_HDMV/PGS
  102. Codec ID/Info                            : Picture based subtitle format used on BDs/HD-DVDs
  103. Duration                                 : 2 h 1 min
  104. Bit rate                                 : 39.6 kb/s
  105. Count of elements                        : 2196
  106. Stream size                              : 34.5 MiB (0%)
  107. Title                                    : English_PGS
  108. Language                                 : English
  109. Default                                  : No
  110. Forced                                   : No
  111. Original source medium                   : Blu-ray
  112. Menu
  113. 00:00:00.000                             : en:Chapter 01
  114. 00:08:10.375                             : en:Chapter 02
  115. 00:16:02.250                             : en:Chapter 03
  116. 00:22:40.541                             : en:Chapter 04
  117. 00:32:46.375                             : en:Chapter 05
  118. 00:37:56.916                             : en:Chapter 06
  119. 00:43:51.958                             : en:Chapter 07
  120. 00:49:27.291                             : en:Chapter 08
  121. 00:55:49.083                             : en:Chapter 09
  122. 01:04:44.458                             : en:Chapter 10
  123. 01:11:32.291                             : en:Chapter 11
  124. 01:18:10.041                             : en:Chapter 12
  125. 01:23:01.625                             : en:Chapter 13
  126. 01:28:11.916                             : en:Chapter 14
  127. 01:34:15.541                             : en:Chapter 15
  128. 01:45:27.250                             : en:Chapter 16
  129. 01:55:38.916                             : en:Chapter 17
  130. 02:03:30.291                             : en:Chapter 18
复制代码







                                       
                                       

                                       
                                       
                                       




回复

使用道具 举报

懒得打字嘛,点击右侧快捷回复 【右侧内容,后台自定义】
您需要登录后才可以回帖 登录 | 立即加入

本版积分规则

Archiver|小黑屋| 蓝光电影网 |网站地图

Copyright © 2021 Comsenz Inc. Powered by 蓝光电影网

蓝光电影网

本站内容由用户自主分享和转载自互联网,转载目的在于传递更多信息,并不代表本网赞同其观点和对其真实性负责。

如有侵权、违反国家法律政策行为,请联系我们,我们会第一时间及时清除和处理!

举报反馈邮箱:[email protected]

快速回复 返回顶部 返回列表