找回密码

蓝光电影网

查看: 74|回复: 0

[2160p] 魔女游戏/入魔 The.Craft.Legacy.2020.HDR.2160p.WEB.H265-NAISU 9.85GB

[复制链接]
蓝光币
1082
发表于 2020-10-29 19:54:05 | 显示全部楼层 |阅读模式


◎译  名 魔女游戏/入魔(台)/我们的女巫手册(港)/新魔女游戏/魔女游戏:遗产
◎片  名 The Craft: Legacy
◎年  代 2020
◎产  地 美国
◎类  别 剧情 / 可骇 / 奇异
◎语  言 英语
◎上映日期 2020-10-28(美国)
◎IMDb评分  3.8/10 from 255 users
◎IMDb链接  https://www.imdb.com/title/tt4685762/
◎豆瓣评分 /10 from 0 users
◎豆瓣链接 https://movie.douban.com/subject/33384226/
◎导  演 佐伊·利斯特·琼斯 Zoe Lister Jones
◎编  剧 佐伊·利斯特·琼斯 Zoe Lister Jones / 丽恩·贾尼埃克 Leigh Janiak
◎主  演 卡莉·史派妮 Cailee Spaeny
       大卫·杜楚尼 David Duchovny
       米歇尔·莫纳汉 Michelle Monaghan
       吉第安·艾朵 Gideon Adlon
       尼古拉斯·加利齐纳 Nicholas Galitzine
       拉维·西蒙尼 Lovie Simone
       查尔斯·万德瓦尔特 Charles Vandervaart
       小唐纳德·麦克莱恩 Donald MacLean Jr.
       汉娜·戈登 Hannah Gordon
       朱利安·格雷 Julian Grey
       詹姆斯·马奇 James Madge
◎标  签 可骇 | 奇异 | 剧情 | 美国电影 | 美国 | 改编 | 翻拍 | 待看
◎简  介


  Blumhouse公司翻拍的典范可骇片《魔女游戏》肯定了导演人选,女导演佐伊·利斯特·琼斯(《创可贴》)将为新片撰写剧本并执导,值得一提的是Blumhouse CEO之前还因对女性导演的谈吐遭到了非议。原版导演中,四个在黉舍中被孤立的女孩走到了一路,她们希望呼唤出鬼神来让自己糟糕的生活获得改变,但怎样会有免费的午饭呢?
  1. Video
  2. ID                                       : 1
  3. Format                                   : HEVC
  4. Format/Info                              : High Efficiency Video Coding
  5. Format profile                           : Main [email protected]@Main
  6. Codec ID                                 : V_MPEGH/ISO/HEVC
  7. Duration                                 : 1 h 34 min
  8. Bit rate                                 : 14.2 Mb/s
  9. Width                                    : 3 840 pixels
  10. Height                                   : 2 160 pixels
  11. Display aspect ratio                     : 16:9
  12. Frame rate mode                          : Constant
  13. Frame rate                               : 23.976 (24000/1001/189150) FPS
  14. Color space                              : YUV
  15. Chroma subsampling                       : 4:2:0 (Type 2)
  16. Bit depth                                : 10 bits
  17. Bits/(Pixel*Frame)                       : 0.071
  18. Stream size                              : 9.37 GiB (96%)
  19. Default                                  : Yes
  20. Forced                                   : No
  21. Color range                              : Limited
  22. Color primaries                          : BT.2020
  23. Transfer characteristics                 : PQ
  24. Matrix coefficients                      : BT.2020 non-constant
  25. Maximum Content Light Level              : 1574 cd/m2
  26. Maximum Frame-Average Light Level        : 364 cd/m2

  27. Audio
  28. ID                                       : 2
  29. Format                                   : E-AC-3
  30. Format/Info                              : Enhanced AC-3
  31. Commercial name                          : Dolby Digital Plus
  32. Codec ID                                 : A_EAC3
  33. Duration                                 : 1 h 34 min
  34. Bit rate mode                            : Constant
  35. Bit rate                                 : 256 kb/s
  36. Channel(s)                               : 6 channels
  37. Channel layout                           : L R C LFE Ls Rs
  38. Sampling rate                            : 48.0 kHz
  39. Frame rate                               : 31.250 FPS (1536 SPF)
  40. Compression mode                         : Lossy
  41. Stream size                              : 173 MiB (2%)
  42. Language                                 : English
  43. Service kind                             : Complete Main
  44. Default                                  : Yes
  45. Forced                                   : No

  46. Text
  47. ID                                       : 3
  48. Format                                   : UTF-8
  49. Codec ID                                 : S_TEXT/UTF8
  50. Codec ID/Info                            : UTF-8 Plain Text
  51. Language                                 : English
  52. Default                                  : No
  53. Forced                                   : No
复制代码



                                       
                                       

                                       
                                       
                                       




回复

使用道具 举报

懒得打字嘛,点击右侧快捷回复 【右侧内容,后台自定义】
您需要登录后才可以回帖 登录 | 立即加入

本版积分规则

Archiver|小黑屋| 蓝光电影网 |网站地图

Copyright © 2021 Comsenz Inc. Powered by 蓝光电影网

蓝光电影网

本站内容由用户自主分享和转载自互联网,转载目的在于传递更多信息,并不代表本网赞同其观点和对其真实性负责。

如有侵权、违反国家法律政策行为,请联系我们,我们会第一时间及时清除和处理!

举报反馈邮箱:[email protected]

快速回复 返回顶部 返回列表