找回密码

查看: 1560|回复: 0

[惊悚] 咆哮/狮子乐园开心地 Roar.1981.EXTENDED.1080p.BluRay.x264.AAC2.0-KESH 7.28GB

[复制链接]
蓝光币
2048
发表于 2021-6-22 09:11:16 | 显示全部楼层 |阅读模式


◎译  名 咆哮/狮子乐园高兴地/顽皮的动物
◎片  名 Roar
◎年  代 1981
◎产  地 美国
◎类  别 惊悚 / 冒险
◎语  言 英语
◎上映日期 1981-11-12
◎豆瓣评分 7.8/10 from 477 users
◎豆瓣链接 https://movie.douban.com/subject/1304455/
◎片  长 102 分钟
◎主  演 蒂比·海德莉 Tippi Hedren
       梅兰尼·格里菲斯 Melanie Griffith
       扎克·默凯 Zakes Mokae
       威尔·哈钦斯 Will Hutchins
◎标  签 动物 | 顽皮的动物 | 美国 | 美国电影 | 1981 | 惊悚 | 可骇 | documentary
◎简  介


  Produced over the course of ten years, Roar is an audacious cinematic experiment: a thriller showcasing the majesty and ferocity of African lions, filmed on location amidst dozens of actual untrained big cats using regular actors instead of stuntmen. Writer/director Noel Marshall stars as Hank, a doctor and outspoken naturalist in Africa who allows lions, tigers, cheetahs and other big cats to roam freely around his remote estate. While away protecting animals from poachers, Hank’s family (including Marshall’s real-life wife and daughter, Tippi Hedren and Melanie Griffith), arrive at his home and are stalked by the massive lions that have overrun the house.
  1. Video
  2. ID                                       : 1
  3. Format                                   : AVC
  4. Format/Info                              : Advanced Video Codec
  5. Format profile                           : [email protected]
  6. Format settings                          : CABAC / 4 Ref Frames
  7. Format settings, CABAC                   : Yes
  8. Format settings, Reference frames        : 4 frames
  9. Codec ID                                 : V_MPEG4/ISO/AVC
  10. Duration                                 : 1 h 41 min
  11. Bit rate                                 : 10 000 kb/s
  12. Width                                    : 1 920 pixels
  13. Height                                   : 836 pixels
  14. Display aspect ratio                     : 2.25:1
  15. Frame rate mode                          : Constant
  16. Frame rate                               : 24.000 FPS
  17. Color space                              : YUV
  18. Chroma subsampling                       : 4:2:0
  19. Bit depth                                : 8 bits
  20. Scan type                                : Progressive
  21. Bits/(Pixel*Frame)                       : 0.260
  22. Stream size                              : 7.08 GiB (97%)
  23. Title                                    : Roar 1981.1080p.BluRay.x264.AC3-KESH
  24. Writing library                          : x264 core 142 r2479 dd79a61
  25. Encoding settings                        : cabac=1 / ref=4 / deblock=1:-3:-3 / analyse=0x3:0x113 / me=umh / subme=8 / psy=1 / psy_rd=1.00:0.00 / mixed_ref=1 / me_range=17 / chroma_me=1 / trellis=2 / 8x8dct=1 / cqm=0 / deadzone=21,11 / fast_pskip=1 / chroma_qp_offset=-2 / threads=6 / lookahead_threads=1 / sliced_threads=0 / nr=0 / decimate=1 / interlaced=0 / bluray_compat=0 / constrained_intra=0 / bframes=5 / b_pyramid=2 / b_adapt=1 / b_bias=0 / direct=1 / weightb=1 / open_gop=0 / weightp=2 / keyint=240 / keyint_min=24 / scenecut=40 / intra_refresh=0 / rc_lookahead=40 / rc=2pass / mbtree=1 / bitrate=10000 / ratetol=1.0 / qcomp=0.60 / qpmin=0 / qpmax=69 / qpstep=4 / cplxblur=20.0 / qblur=0.5 / vbv_maxrate=62500 / vbv_bufsize=78125 / nal_hrd=none / filler=0 / ip_ratio=1.40 / aq=1:1.00
  26. Language                                 : English
  27. Default                                  : Yes
  28. Forced                                   : No
  29. Color range                              : Limited
  30. Color primaries                          : BT.709
  31. Transfer characteristics                 : BT.709
  32. Matrix coefficients                      : BT.709
  33. Audio
  34. ID                                       : 2
  35. Format                                   : AAC LC
  36. Format/Info                              : Advanced Audio Codec Low Complexity
  37. Codec ID                                 : A_AAC-2
  38. Duration                                 : 1 h 41 min
  39. Bit rate                                 : 275 kb/s
  40. Channel(s)                               : 2 channels
  41. Channel layout                           : L R
  42. Sampling rate                            : 48.0 kHz
  43. Frame rate                               : 46.875 FPS (1024 SPF)
  44. Compression mode                         : Lossy
  45. Delay relative to video                  : -83 ms
  46. Stream size                              : 200 MiB (3%)
  47. Language                                 : English
  48. Default                                  : Yes
  49. Forced                                   : No
复制代码







                                       
                                       

                                       
                                       
                                       




回复

使用道具 举报

懒得打字嘛,点击右侧快捷回复 【右侧内容,后台自定义】
您需要登录后才可以回帖 登录 | 立即加入

本版积分规则

Archiver| |网站地图

Copyright © 2024 Comsenz Inc. Powered by 蓝光电影网

本站内容由用户自主分享和转载自互联网,转载目的在于传递更多信息,并不代表本网赞同其观点和对其真实性负责。

如有侵权、违反国家法律政策行为,请联系我们,我们会第一时间及时清除和处理!

举报反馈邮箱:4k1080.com@gmail.com

快速回复 返回顶部 返回列表