找回密码

查看: 3334|回复: 1

[动作] 重返中世纪/决战时空线 Timeline.2003.1080p.BluRay.REMUX.AVC.DTS-HR.5.1-FGT 30.75GB

[复制链接]
蓝光币
2048
发表于 2021-6-8 20:54:18 | 显示全部楼层 |阅读模式


◎译  名 重返中世纪/决战时空线(台)/时候线/丢失凶间(港)
◎片  名 Timeline
◎年  代 2003
◎产  地 美国
◎类  别 行动 / 科幻 / 冒险
◎语  言 英语,法语
◎上映日期 2003-11-19
◎豆瓣评分 6.4/10 from 5855 users
◎豆瓣链接 https://movie.douban.com/subject/1306004/
◎片  长 116 分钟
◎导  演 理查德·唐纳 Richard Donner
◎编  剧 乔治·诺非 George Nolfi / 杰夫·马圭尔 Jeff Maguire / 迈克尔·克莱顿 Michael Crichton
◎主  演 保罗·沃克 Paul Walker
       弗兰西丝·奥康纳 Frances O'Connor
       杰拉德·巴特勒 Gerard Butler
       比利·康诺利 Billy Connolly
       大卫·休里斯 David Thewlis
       安娜·弗莱尔 Anna Friel
       尼尔·麦克唐纳 Neal McDonough
       马特·克拉文 Matt Craven
       伊桑·恩布里 Ethan Embry
       麦克·辛 Michael Sheen
       朗贝尔·维尔森 Lambert Wilson
       马尔顿·索克斯 Marton Csokas
       罗西弗·萨瑟兰 Rossif Sutherland
       大卫·拉艾 David La Haye
       瓦拉斯塔·瓦拉纳 Vlasta Vrana
       吕克·莱图尔诺 Luke Letourneau
       克里斯蒂安·保罗 Christian Paul
       帕特里克·萨邦圭 Patrick Sabongui
       Stéphanie Montreux
       西尔维亚·斯图尔特 Sylvia Stewart
       克里斯·苏利文 Chris Sullivan
       布鲁斯·拉姆塞 Bruce Ramsay
       Stephanie Biddle
       艾米·斯洛安 Amy Sloan
       理查德·唐纳 Richard Donner
◎标  签 科幻 | 美国 | 穿越时空 | 时候观光 | 战争 | 美国电影 | 2003 | 英法战争
◎简  介


  老教授爱德华·乔斯顿(比利·康诺利 Billy Connolly 饰)是一位努力于中世纪考古的历史学家,而挖掘14世纪遗留下的拉洛克城堡一向是他的终生心愿,但是直到明天,一家国际科技公司的总裁罗伯特(大卫?休里斯 David Thewlis 饰)愿意投资该项目,乔斯特的愿望才终究得以实现,他便马不停蹄地与儿子克里斯(保罗·沃克 Paul Walker 饰)一路组建了考古小组预备前往法国,探访昔时的古疆场。但是考古小组成员在一次很平常的挖掘中,发现了一张1357年的求救纸条,签名居然是乔斯顿教授,四周还发现了教授的眼镜,但距今已600多年。百思不得其解的组员们找到投资人罗伯特,方知野心勃勃的罗伯特竟奥秘发现了一架时光机械,能穿越虫洞将人送回到1357年。面临着这个可怕而奇异的工具,克里斯决议率领成员一同重返中世纪,拯救父亲。但是他们谁也无从猜测,在虫洞的另一头期待着他们的会是什么……
  
  本片改编自美国作家迈克尔·克莱顿(Michael Crichton)的同名小说。
  1. Video
  2. ID                                       : 1
  3. ID in the original source medium         : 4113 (0x1011)
  4. Format                                   : AVC
  5. Format/Info                              : Advanced Video Codec
  6. Format profile                           : [email protected]
  7. Format settings                          : CABAC / 4 Ref Frames
  8. Format settings, CABAC                   : Yes
  9. Format settings, Reference frames        : 4 frames
  10. Format settings, GOP                     : M=3, N=23
  11. Codec ID                                 : V_MPEG4/ISO/AVC
  12. Duration                                 : 1 h 55 min
  13. Bit rate mode                            : Variable
  14. Bit rate                                 : 32.0 Mb/s
  15. Maximum bit rate                         : 35.0 Mb/s
  16. Width                                    : 1 920 pixels
  17. Height                                   : 1 080 pixels
  18. Display aspect ratio                     : 16:9
  19. Frame rate mode                          : Constant
  20. Frame rate                               : 23.976 (24000/1001/189150) FPS
  21. Color space                              : YUV
  22. Chroma subsampling                       : 4:2:0
  23. Bit depth                                : 8 bits
  24. Scan type                                : Progressive
  25. Bits/(Pixel*Frame)                       : 0.643
  26. Stream size                              : 25.8 GiB (84%)
  27. Language                                 : English
  28. Default                                  : No
  29. Forced                                   : No
  30. Color range                              : Limited
  31. Color primaries                          : BT.709
  32. Transfer characteristics                 : BT.709
  33. Matrix coefficients                      : BT.709
  34. Original source medium                   : Blu-ray
  35. Audio #1
  36. ID                                       : 2
  37. ID in the original source medium         : 4352 (0x1100)
  38. Format                                   : DTS XBR
  39. Format/Info                              : Digital Theater Systems
  40. Commercial name                          : DTS-HD High Resolution Audio
  41. Codec ID                                 : A_DTS
  42. Duration                                 : 1 h 55 min
  43. Bit rate mode                            : Constant
  44. Bit rate                                 : 3 840 kb/s
  45. Channel(s)                               : 6 channels
  46. Channel layout                           : C L R Ls Rs LFE
  47. Sampling rate                            : 48.0 kHz
  48. Frame rate                               : 93.750 FPS (512 SPF)
  49. Bit depth                                : 24 bits
  50. Compression mode                         : Lossy
  51. Stream size                              : 3.10 GiB (10%)
  52. Title                                    : DTS-HR 5.1
  53. Language                                 : English
  54. Default                                  : Yes
  55. Forced                                   : No
  56. Original source medium                   : Blu-ray
  57. Audio #2
  58. ID                                       : 3
  59. ID in the original source medium         : 4353 (0x1101)
  60. Format                                   : PCM
  61. Format settings                          : Little / Signed
  62. Codec ID                                 : A_PCM/INT/LIT
  63. Duration                                 : 1 h 55 min
  64. Bit rate mode                            : Constant
  65. Bit rate                                 : 2 304 kb/s
  66. Channel(s)                               : 2 channels
  67. Sampling rate                            : 48.0 kHz
  68. Frame rate                               : 30.000 FPS (1600 SPF)
  69. Bit depth                                : 24 bits
  70. Stream size                              : 1.86 GiB (6%)
  71. Title                                    : LPCM 2.0
  72. Language                                 : English
  73. Default                                  : No
  74. Forced                                   : No
  75. Original source medium                   : Blu-ray
  76. Text #1
  77. ID                                       : 4
  78. Format                                   : UTF-8
  79. Codec ID                                 : S_TEXT/UTF8
  80. Codec ID/Info                            : UTF-8 Plain Text
  81. Duration                                 : 1 h 45 min
  82. Bit rate                                 : 66 b/s
  83. Count of elements                        : 1498
  84. Stream size                              : 51.4 KiB (0%)
  85. Title                                    : English-SRT
  86. Language                                 : English
  87. Default                                  : Yes
  88. Forced                                   : No
  89. Text #2
  90. ID                                       : 5
  91. ID in the original source medium         : 4608 (0x1200)
  92. Format                                   : PGS
  93. Muxing mode                              : zlib
  94. Codec ID                                 : S_HDMV/PGS
  95. Codec ID/Info                            : Picture based subtitle format used on BDs/HD-DVDs
  96. Duration                                 : 1 h 45 min
  97. Bit rate                                 : 28.6 kb/s
  98. Count of elements                        : 3012
  99. Stream size                              : 21.6 MiB (0%)
  100. Title                                    : English-PGS
  101. Language                                 : English
  102. Default                                  : No
  103. Forced                                   : No
  104. Original source medium                   : Blu-ray
  105. Menu
  106. 00:00:00.000                             : Chapter 01
  107. 00:03:52.982                             : Chapter 02
  108. 00:12:12.273                             : Chapter 03
  109. 00:17:36.722                             : Chapter 04
  110. 00:25:15.055                             : Chapter 05
  111. 00:39:32.870                             : Chapter 06
  112. 00:49:49.820                             : Chapter 07
  113. 00:57:53.344                             : Chapter 08
  114. 01:08:40.407                             : Chapter 09
  115. 01:24:32.650                             : Chapter 10
  116. 01:35:52.997                             : Chapter 11
  117. 01:47:51.798                             : Chapter 12
复制代码







                                       
                                       

                                       
                                       
                                       




回复

使用道具 举报

蓝光币
263
发表于 2021-11-15 08:58:13 | 显示全部楼层

这东西我收了!谢谢楼主!蓝光电影网真好!
回复

使用道具 举报

懒得打字嘛,点击右侧快捷回复 【右侧内容,后台自定义】
您需要登录后才可以回帖 登录 | 立即加入

本版积分规则

Archiver| |网站地图

Copyright © 2024 Comsenz Inc. Powered by 蓝光电影网

本站内容由用户自主分享和转载自互联网,转载目的在于传递更多信息,并不代表本网赞同其观点和对其真实性负责。

如有侵权、违反国家法律政策行为,请联系我们,我们会第一时间及时清除和处理!

举报反馈邮箱:4k1080.com@gmail.com

快速回复 返回顶部 返回列表