找回密码

查看: 1901|回复: 0

[喜剧] 高材生 Booksmart.2019.1080p.BluRay.REMUX.AVC.DTS-HD.MA.5.1-FGT 27.01GB

[复制链接]
蓝光币
2039
发表于 2019-8-31 20:58:04 | 显示全部楼层 |阅读模式


◎译  名 高材生
◎片  名 Booksmart
◎年  代 2019
◎产  地 美国
◎类  别 笑剧
◎上映日期 2019-03-10(西南偏南电影节) / 2019-05-24(美国)
◎IMDb评分  7.5/10 from 1412 users
◎IMDb链接  http://www.imdb.com/title/tt1489887
◎豆瓣评分 0/10 from 0 users
◎豆瓣链接 https://movie.douban.com/subject/3927736/
◎片  长 105分钟
◎导  演 奥利维亚·王尔德 Olivia Wilde
◎编  剧 苏珊娜·福格尔 Susanna Fogel / Katie Silberman / 艾米莉·哈尔彭 Emily Halpern / Sarah Haskins
◎主  演 凯特琳·德弗 Kaitlyn Dever
      丽莎·库卓 Lisa Kudrow
      威尔·福特 Will Forte
      杰森·苏戴奇斯 Jason Sudeikis
      比莉·洛德 Billie Lourd
      斯凯勒·吉桑多 Skyler Gisondo
      莫莉·戈登 Molly Gordon
      杰西卡·威廉姆斯 Jessica Williams
      比妮·费尔德斯坦 Beanie Feldstein
      戴安娜·希维斯 Diana Silvers
      爱德华多·弗兰科 Eduardo Franco
      迈克尔·帕特里克·奥布莱恩 Michael Patrick O'Brien
      诺亚·盖尔文 Noah Galvin
      黛布·海特 Deb Hiett
      阿德里安·法维拉 Adrian Favela

◎标  签 青春 | 美国 | 笑剧 | 2019 | 长大 | 女性 | 电影 | 美国电影
◎简  介  
  报告一对好友、两个学术天赋和一群朋友在高中结业前夜意想到她们应当少进修而多玩,为了不落后同龄人,她们起头了一项使命:将4年的欢畅时光填满一个早晨。
  1. Video
  2. ID                                       : 1
  3. Format                                   : AVC
  4. Format/Info                              : Advanced Video Codec
  5. Format profile                           : [email protected]
  6. Format settings                          : CABAC / 4 Ref Frames
  7. Format settings, CABAC                   : Yes
  8. Format settings, Reference frames        : 4 frames
  9. Codec ID                                 : V_MPEG4/ISO/AVC
  10. Duration                                 : 1 h 42 min
  11. Bit rate mode                            : Variable
  12. Bit rate                                 : 33.4 Mb/s
  13. Maximum bit rate                         : 37.0 Mb/s
  14. Width                                    : 1 920 pixels
  15. Height                                   : 1 080 pixels
  16. Display aspect ratio                     : 16:9
  17. Frame rate mode                          : Constant
  18. Frame rate                               : 23.976 (24000/1001) FPS
  19. Color space                              : YUV
  20. Chroma subsampling                       : 4:2:0
  21. Bit depth                                : 8 bits
  22. Scan type                                : Progressive
  23. Bits/(Pixel*Frame)                       : 0.672
  24. Stream size                              : 23.9 GiB (88%)
  25. Title                                    : Booksmart.2019.1080p.BluRay.REMUX.AVC.DTS-HD.MA.5.1-FGT
  26. Language                                 : English
  27. Default                                  : No
  28. Forced                                   : No
  29. Audio #1
  30. ID                                       : 2
  31. Format                                   : DTS XLL
  32. Format/Info                              : Digital Theater Systems
  33. Commercial name                          : DTS-HD Master Audio
  34. Codec ID                                 : A_DTS
  35. Duration                                 : 1 h 42 min
  36. Bit rate mode                            : Variable
  37. Bit rate                                 : 3 639 kb/s
  38. Channel(s)                               : 6 channels
  39. Channel layout                           : C L R Ls Rs LFE
  40. Sampling rate                            : 48.0 kHz
  41. Frame rate                               : 93.750 FPS (512 SPF)
  42. Bit depth                                : 24 bits
  43. Compression mode                         : Lossless
  44. Stream size                              : 2.60 GiB (10%)
  45. Title                                    : Booksmart.2019.1080p.BluRay.REMUX.AVC.DTS-HD.MA.5.1-FGT
  46. Language                                 : English
  47. Default                                  : Yes
  48. Forced                                   : No
  49. Audio #2
  50. ID                                       : 3
  51. Format                                   : AC-3
  52. Format/Info                              : Audio Coding 3
  53. Commercial name                          : Dolby Digital
  54. Codec ID                                 : A_AC3
  55. Duration                                 : 1 h 42 min
  56. Bit rate mode                            : Constant
  57. Bit rate                                 : 448 kb/s
  58. Channel(s)                               : 6 channels
  59. Channel layout                           : L R C LFE Ls Rs
  60. Sampling rate                            : 48.0 kHz
  61. Frame rate                               : 31.250 FPS (1536 SPF)
  62. Bit depth                                : 16 bits
  63. Compression mode                         : Lossy
  64. Stream size                              : 328 MiB (1%)
  65. Title                                    : Booksmart.2019.1080p.BluRay.REMUX.AVC.DTS-HD.MA.5.1-FGT
  66. Language                                 : English
  67. Service kind                             : Complete Main
  68. Default                                  : No
  69. Forced                                   : No
  70. Audio #3
  71. ID                                       : 4
  72. Format                                   : AC-3
  73. Format/Info                              : Audio Coding 3
  74. Commercial name                          : Dolby Digital
  75. Codec ID                                 : A_AC3
  76. Duration                                 : 1 h 42 min
  77. Bit rate mode                            : Constant
  78. Bit rate                                 : 224 kb/s
  79. Channel(s)                               : 2 channels
  80. Channel layout                           : L R
  81. Sampling rate                            : 48.0 kHz
  82. Frame rate                               : 31.250 FPS (1536 SPF)
  83. Bit depth                                : 16 bits
  84. Compression mode                         : Lossy
  85. Stream size                              : 164 MiB (1%)
  86. Title                                    : Booksmart.2019.1080p.BluRay.REMUX.AVC.DTS-HD.MA.5.1-FGT
  87. Language                                 : English
  88. Service kind                             : Complete Main
  89. Default                                  : No
  90. Forced                                   : No
  91. Text #1
  92. ID                                       : 5
  93. Format                                   : UTF-8
  94. Codec ID                                 : S_TEXT/UTF8
  95. Codec ID/Info                            : UTF-8 Plain Text
  96. Duration                                 : 1 h 42 min
  97. Bit rate                                 : 93 b/s
  98. Count of elements                        : 2217
  99. Stream size                              : 69.6 KiB (0%)
  100. Title                                    : English-SRT
  101. Language                                 : English
  102. Default                                  : Yes
  103. Forced                                   : No
  104. Text #2
  105. ID                                       : 6
  106. Format                                   : PGS
  107. Muxing mode                              : zlib
  108. Codec ID                                 : S_HDMV/PGS
  109. Codec ID/Info                            : Picture based subtitle format used on BDs/HD-DVDs
  110. Duration                                 : 1 h 42 min
  111. Bit rate                                 : 61.2 kb/s
  112. Count of elements                        : 4760
  113. Stream size                              : 44.7 MiB (0%)
  114. Title                                    : English-PGS
  115. Language                                 : English
  116. Default                                  : No
  117. Forced                                   : No
  118. Text #3
  119. ID                                       : 7
  120. Format                                   : PGS
  121. Muxing mode                              : zlib
  122. Codec ID                                 : S_HDMV/PGS
  123. Codec ID/Info                            : Picture based subtitle format used on BDs/HD-DVDs
  124. Duration                                 : 15 s 36 ms
  125. Bit rate                                 : 96.0 kb/s
  126. Count of elements                        : 14
  127. Stream size                              : 176 KiB (0%)
  128. Title                                    : English-FORCED-PGS
  129. Language                                 : English
  130. Default                                  : No
  131. Forced                                   : No
  132. Text #4
  133. ID                                       : 8
  134. Format                                   : PGS
  135. Muxing mode                              : zlib
  136. Codec ID                                 : S_HDMV/PGS
  137. Codec ID/Info                            : Picture based subtitle format used on BDs/HD-DVDs
  138. Duration                                 : 1 h 42 min
  139. Bit rate                                 : 49.2 kb/s
  140. Count of elements                        : 4048
  141. Stream size                              : 35.9 MiB (0%)
  142. Title                                    : Spanish-PGS
  143. Language                                 : Spanish
  144. Default                                  : No
  145. Forced                                   : No
  146. Text #5
  147. ID                                       : 9
  148. Format                                   : PGS
  149. Muxing mode                              : zlib
  150. Codec ID                                 : S_HDMV/PGS
  151. Codec ID/Info                            : Picture based subtitle format used on BDs/HD-DVDs
  152. Duration                                 : 1 h 42 min
  153. Bit rate                                 : 73.4 kb/s
  154. Count of elements                        : 3864
  155. Stream size                              : 53.6 MiB (0%)
  156. Title                                    : English-COMMENTARY-PGS
  157. Language                                 : English
  158. Default                                  : No
  159. Forced                                   : No
  160. Text #6
  161. ID                                       : 10
  162. Format                                   : PGS
  163. Muxing mode                              : zlib
  164. Codec ID                                 : S_HDMV/PGS
  165. Codec ID/Info                            : Picture based subtitle format used on BDs/HD-DVDs
  166. Duration                                 : 1 h 42 min
  167. Bit rate                                 : 68.5 kb/s
  168. Count of elements                        : 3538
  169. Stream size                              : 50.0 MiB (0%)
  170. Title                                    : Spanish-COMMENTARY-PGS
  171. Language                                 : Spanish
  172. Default                                  : No
  173. Forced                                   : No
  174. Text #7
  175. ID                                       : 11
  176. Format                                   : PGS
  177. Muxing mode                              : zlib
  178. Codec ID                                 : S_HDMV/PGS
  179. Codec ID/Info                            : Picture based subtitle format used on BDs/HD-DVDs
  180. Duration                                 : 15 s 36 ms
  181. Bit rate                                 : 79.6 kb/s
  182. Count of elements                        : 14
  183. Stream size                              : 146 KiB (0%)
  184. Title                                    : English-FORCED-PGS
  185. Language                                 : English
  186. Default                                  : No
  187. Forced                                   : No
  188. Text #8
  189. ID                                       : 12
  190. Format                                   : PGS
  191. Muxing mode                              : zlib
  192. Codec ID                                 : S_HDMV/PGS
  193. Codec ID/Info                            : Picture based subtitle format used on BDs/HD-DVDs
  194. Duration                                 : 15 s 36 ms
  195. Bit rate                                 : 79.6 kb/s
  196. Count of elements                        : 14
  197. Stream size                              : 146 KiB (0%)
  198. Title                                    : English-FORCED-PGS
  199. Language                                 : English
  200. Default                                  : No
  201. Forced                                   : No
  202. Menu
  203. 00:00:00.000                             : en:Chapter 01
  204. 00:05:59.359                             : en:Chapter 02
  205. 00:09:51.632                             : en:Chapter 03
  206. 00:15:51.742                             : en:Chapter 04
  207. 00:18:36.448                             : en:Chapter 05
  208. 00:23:19.523                             : en:Chapter 06
  209. 00:27:44.704                             : en:Chapter 07
  210. 00:31:02.110                             : en:Chapter 08
  211. 00:33:46.733                             : en:Chapter 09
  212. 00:38:02.738                             : en:Chapter 10
  213. 00:44:57.403                             : en:Chapter 11
  214. 00:47:52.160                             : en:Chapter 12
  215. 00:52:21.680                             : en:Chapter 13
  216. 00:55:29.826                             : en:Chapter 14
  217. 00:59:50.211                             : en:Chapter 15
  218. 01:06:33.280                             : en:Chapter 16
  219. 01:10:53.874                             : en:Chapter 17
  220. 01:14:43.228                             : en:Chapter 18
  221. 01:18:46.179                             : en:Chapter 19
  222. 01:21:52.115                             : en:Chapter 20
  223. 01:24:41.409                             : en:Chapter 21
  224. 01:27:13.019                             : en:Chapter 22
  225. 01:30:14.325                             : en:Chapter 23
  226. 01:36:05.885                             : en:Chapter 24
复制代码






                                       
                                       

                                       
                                       
                                       




回复

使用道具 举报

懒得打字嘛,点击右侧快捷回复 【右侧内容,后台自定义】
您需要登录后才可以回帖 登录 | 立即加入

本版积分规则

Archiver| |网站地图

Copyright © 2024 Comsenz Inc. Powered by 蓝光电影网

本站内容由用户自主分享和转载自互联网,转载目的在于传递更多信息,并不代表本网赞同其观点和对其真实性负责。

如有侵权、违反国家法律政策行为,请联系我们,我们会第一时间及时清除和处理!

举报反馈邮箱:4k1080.com@gmail.com

快速回复 返回顶部 返回列表