找回密码

查看: 1215|回复: 1

[其他] 战火实录/甲弹部队 Bravo.Two.Zero.1999.1080p.BluRay.x264.DD2.0-NOGRP 10.43GB

[复制链接]
蓝光币
2039
发表于 2020-9-19 22:07:58 | 显示全部楼层 |阅读模式


◎译  名 烽火实录/甲弹军队
◎片  名 Bravo Two Zero
◎年  代 1999
◎产  地 英国
◎类  别 战争
◎上映日期 1999-06-15
◎IMDb评分  6.8/10 from 3735 users
◎IMDb链接  https://www.imdb.com/title/tt0120617/
◎豆瓣评分 7.4/10 from 137 users
◎豆瓣链接 https://movie.douban.com/subject/1303222/
◎导  演 汤姆·克雷格 Tom Clegg / 马克·罗珀 Mark Roper
◎编  剧 Andy McNab / 特洛伊·肯尼迪-马丁 Troy Kennedy-Martin
◎主  演 肖恩·宾 Sean Bean
       理查德·格拉翰 Richard Graham
       Kevin Collins
       克里斯托弗·瓦尔兹 Christoph Waltz
       盖瑞·丹尼尔斯 Gary Daniels
       里克·沃登 Rick Warden
       艾玛·钱伯斯 Emma Chambers
◎标  签 战争 | 英国 | 海湾战争 | 特种军队 | SAS | 1999 | 英国电影 | 典范
◎简  介


  剧情梗概:
  
  本片是一部近年来少数几个使人称赞的电影,拍摄内容全数写实而不夸大,甚至剧情都忠于原着的把进程完整的显现在观众眼前。以半记载片的方式描写波湾战争时英国特种空降勤务队(SAS)履行一项代号为”BravoTwo Zero”的实在故事。
  
  
  
  1991年1月,八名作战经历丰富的SAS老兵预备渗透伊拉克境内寻觅并摧毁令空军没法轰炸的灵活式飞毛腿飞弹基地,此使命由Andy McNab(Sean Bean饰演)领军,队员包括Stan, Dinger, Mark, Vince , Bob, Legs 和 Chris(描写不异故事小说The One That Got Away的作者)。九人的特战小组整装终了后,搭乘直升机进入伊拉克境内,不意一下飞机却发生无线电调错频次没法与基地联系的题目,紧接着又被伊拉克兵士发现,他们为了回避追杀舍弃重装备,尔后一路上就是不停的逃命。
  
  
  
  他们白天睡觉,早晨赶路,还要忍受沙漠昼夜温差与神出鬼没的伊拉克民兵,可是还是依序有部分队友脱队,走散,甚至体力不知而倒地。一路上连续有人灭亡与被俘,最初只剩下Chris 一小我,他设下圈套突击少数仍在追杀的伊拉克兵士,途中无意间发现飞毛腿飞弹的车队,可是已经弹尽粮绝的Chris也对它无可何如了。最初Chris顺遂穿越沙漠逃到叙利亚。
  
  
  
  拍摄特点
  
  为了夸大实在性,本片以半记载片的方式拍摄,并于夜间大量利用夜视镜头画面,让观众可以身历其境。可是本片最为可贵的就是忠厚的描写一项特战行动的委曲。从动身前装备的秤重整理,兵士对战争的无法。到一路流亡的心里刻画,英军特种军队战术与美军的分歧之处均完整的拍摄出来。也许是夸大实在性的关系,本片为近年来少见对装备、兵器、战术与特种作战完整显现的电影。
  
  
  
  特种军队
  
  英国特种空降勤务队(Special Air Service),波湾战争时代联军的特种军队屡次深入伊拉克境内履行寻觅摧毁飞毛腿飞弹发射基地的奥秘使命,这些危险的使命大部分并未公然,也未遭到一般人的重视。
  
  
  
  兵器装具
  
  M16A2步枪+M203榴弹发射器
  
  英军沙漠迷彩服
  1. Video
  2. ID                                       : 1
  3. Format                                   : AVC
  4. Format/Info                              : Advanced Video Codec
  5. Format profile                           : [email protected]
  6. Format settings                          : CABAC / 4 Ref Frames
  7. Format settings, CABAC                   : Yes
  8. Format settings, Reference frames        : 4 frames
  9. Codec ID                                 : V_MPEG4/ISO/AVC
  10. Duration                                 : 2 h 2 min
  11. Bit rate                                 : 12.0 Mb/s
  12. Width                                    : 1 920 pixels
  13. Height                                   : 1 080 pixels
  14. Display aspect ratio                     : 16:9
  15. Frame rate mode                          : Constant
  16. Frame rate                               : 23.976 (24000/1001/189150) FPS
  17. Color space                              : YUV
  18. Chroma subsampling                       : 4:2:0
  19. Bit depth                                : 8 bits
  20. Scan type                                : Progressive
  21. Bits/(Pixel*Frame)                       : 0.241
  22. Stream size                              : 10.2 GiB (98%)
  23. Writing library                          : x264 core 157 r2935 545de2f
  24. Encoding settings                        : cabac=1 / ref=3 / deblock=1:-3:-3 / analyse=0x1:0x111 / me=umh / subme=9 / psy=1 / psy_rd=1.00:0.00 / mixed_ref=1 / me_range=32 / chroma_me=1 / trellis=1 / 8x8dct=0 / cqm=0 / deadzone=21,11 / fast_pskip=0 / chroma_qp_offset=-2 / threads=18 / lookahead_threads=1 / sliced_threads=0 / nr=0 / decimate=0 / interlaced=0 / bluray_compat=0 / constrained_intra=0 / bframes=3 / b_pyramid=2 / b_adapt=1 / b_bias=0 / direct=1 / weightb=1 / open_gop=0 / weightp=2 / keyint=240 / keyint_min=24 / scenecut=40 / intra_refresh=0 / rc_lookahead=40 / rc=2pass / mbtree=0 / bitrate=12000 / ratetol=1.0 / qcomp=0.60 / qpmin=0 / qpmax=69 / qpstep=4 / cplxblur=20.0 / qblur=0.5 / vbv_maxrate=20000 / vbv_bufsize=25000 / nal_hrd=none / filler=0 / ip_ratio=1.40 / pb_ratio=1.30 / aq=2:1.00
  25. Language                                 : English
  26. Default                                  : Yes
  27. Forced                                   : No
  28. Color range                              : Limited
  29. Color primaries                          : BT.709
  30. Transfer characteristics                 : BT.709
  31. Matrix coefficients                      : BT.709
  32. Audio
  33. ID                                       : 2
  34. Format                                   : AC-3
  35. Format/Info                              : Audio Coding 3
  36. Commercial name                          : Dolby Digital
  37. Codec ID                                 : A_AC3
  38. Duration                                 : 2 h 2 min
  39. Bit rate mode                            : Constant
  40. Bit rate                                 : 224 kb/s
  41. Channel(s)                               : 2 channels
  42. Channel layout                           : L R
  43. Sampling rate                            : 48.0 kHz
  44. Frame rate                               : 31.250 FPS (1536 SPF)
  45. Compression mode                         : Lossy
  46. Stream size                              : 196 MiB (2%)
  47. Language                                 : English
  48. Service kind                             : Complete Main
  49. Default                                  : Yes
  50. Forced                                   : No
复制代码






                                       
                                       

                                       
                                       
                                       




回复

使用道具 举报

蓝光币
2
发表于 2023-2-1 21:53:27 | 显示全部楼层
可惜没币哦
回复

使用道具 举报

懒得打字嘛,点击右侧快捷回复 【右侧内容,后台自定义】
您需要登录后才可以回帖 登录 | 立即加入

本版积分规则

Archiver| |网站地图

Copyright © 2024 Comsenz Inc. Powered by 蓝光电影网

本站内容由用户自主分享和转载自互联网,转载目的在于传递更多信息,并不代表本网赞同其观点和对其真实性负责。

如有侵权、违反国家法律政策行为,请联系我们,我们会第一时间及时清除和处理!

举报反馈邮箱:4k1080.com@gmail.com

快速回复 返回顶部 返回列表