找回密码

查看: 1205|回复: 0

[其他] 永远的车神/塞纳 Senna.2010.1080p.BluRay.x264-NORDiCHD 7.94GB

[复制链接]
蓝光币
2039
发表于 2020-9-19 21:36:43 | 显示全部楼层 |阅读模式


◎译  名 永久的车神/塞纳/车神塞纳/车神洗拿(台)
◎片  名 Senna
◎年  代 2010
◎产  地 英国
◎类  别 记载片 / 列传 / 活动
◎语  言 英语,葡萄牙语
◎上映日期 2011-06-03(英国)
◎IMDb评分  8.5/10 from 62476 users
◎IMDb链接  https://www.imdb.com/title/tt1424432/
◎豆瓣评分 9.2/10 from 7291 users
◎豆瓣链接 https://movie.douban.com/subject/3718778/
◎片  长 106分钟
◎导  演 阿斯弗·卡帕迪尔 Asif Kapadia
◎主  演 艾尔顿·塞纳 Ayrton Senna
◎标  签 记载片 | 列传 | 赛车 | F1 | 英国 | senna | AyrtonSenna | 2011
◎简  介


  影片报告了巴西传奇车手埃尔顿·赛纳传奇的平生。一级方程式车手赛纳在其职业生活中加入了161场大奖赛、41次冠军、65次排头位、三次一级方程式大奖赛年度总冠军,以其勇敢、聪明,奔驰在赛场上10年,缔造出了不服凡的成就,成为今世天下最优异的赛车手,被誉为“赛车王子”……不幸的是, 1994年5月1日在圣马力诺的伊莫拉赛道上撞车身亡,年仅34岁。
  
  1960年3月21日,塞纳诞生于巴西的圣保罗市。其父亲是一位具有百万资产的企业家,经营一个汽车零配件厂。塞纳4岁时,他父亲便专门为他定做了一辆一马力的简便小赛车。小塞纳似乎天生就对汽车有一种偏心,7岁那年,他便敢单独把父亲的轿车开到街上。塞纳10岁时,父亲送给他一辆实在的小型赛车,今后,他就对赛车着了迷。他在作文中写道:“未来我一定要成为一位一级方程式赛车手。” 1973年,年满13岁的塞纳初次加入在故乡举行的小型赛车角逐,初战告捷,今后节节成功,17岁时便夺得了南美冠军。尔后,他又屡次获得小型赛车的巴西全国冠军和南美冠军。可是,塞纳并不满足,他的愿望是向天下一流车手应战。
  
  1981年,塞纳到了赛车活动的圣地——欧洲,起头加入方程式汽车角逐。未几,塞纳夺得福特1600方程式和福特2000方程式的冠军,在赛车界崭露头角。
  
  1983年,塞纳集合尽力角逐三级方程式的角逐,成果荣膺全英冠军。在1981~1983年的短短三年间,塞纳前后夺得了44站的成功,颤动了全部赛车界,缔造了“塞纳现象”。
  
  1984年, 24岁的塞纳起头一级方程式赛车的生活。塞纳不但在晴天角逐时是一位优异车手,就是在乌云翻滚、暴雨倾盆的卑劣条件下,也能以他超人的胆子和妇熟的技术在赛道上奋勇争先。在塞纳职业车手历史中,不乏雨中夺魁的出色记载,他的第一次一级方程式冠军就是在雨中缔造的。
  
  1985年4月22日,在葡萄牙大奖赛的埃斯托利尔赛道中,连日不竭的大雨使原本就已颇具危险的角逐变得加倍艰难,车手们面临着严重的考验。法国车手普罗斯特的车原地打转熄火了,巴西著名车手皮盖特的车也退出了赛场。但是,勇敢的塞纳却冷静地驾驶赛车冒雨飞奔,终究以先于第二名1分30秒的绝对上风获得冠军。这是塞纳加入一级方程式大赛的第一场成功,由此,塞纳也以“雨中塞纳”而著名。
  
  80年月末至90年月初是塞纳赛车生活的光辉期间,他每站角逐排位几近总是最前,最早冲刺的也几近总是他;他三次夺得了天下一级方程式车赛年度总冠军,各著名车队用尽招数争取塞纳,他成为年薪最高的车手。塞纳一时候几近成了赛事的代名词,赛纳这个名子在巴西、南美和欧洲家喻户晓。
  
  1993年,塞纳在其故乡圣保罗出尽风头。角逐时,大雨如注,赛手们纷纷害怕不前,惟有塞纳勇往直前,其熟练的驾车技术赢得不计其数的崇敬者一阵又一阵的狂呼,全部赛场为塞纳而沸腾。
  
  1993年10月,塞纳同威廉姆斯车队告竣有用期2年,年薪1500万美圆的协议。天下上最好的赛车配上了最好的车手,消息界以为这是一级方程式赛车史上最完善的连系。塞纳已鼓足勇气,决心驾驶威廉姆斯车在1994年第四次夺魁。
  
  但是,1994年一开赛,塞纳的命运就欠安。在其故乡圣保罗湖区赛道举行的第一站角逐中,塞纳由于求胜心切,进入弯道时踩油门过猛而形成赛车打滑熄火。在日本举行的第二站角逐中,刚一路跑,塞纳的威廉姆斯赛车便被芬兰选手米卡·哈基宁的车撞在尾部,被迫退出角逐。
  
  由于前两站角逐的失利,塞纳尽心尽力备战,决心拿下第三站。5月1日,在意大利的伊莫拉赛道起头了第三站的角逐,塞纳还是排位第一。当赛车行至第7圈时悲剧发生了,只见在坦布雷罗弯道上,塞纳驾驶的2号赛车以约300km/h的高速撞上了水泥防护墙……
  
  塞纳之死震动了全天下,很多国家的消息前言都停止了大量报道。在巴西,塞纳不但仅是一位超级车手,他还是国家的意味,是民族的自豪,总统为他亲身主持了国葬。
◎获奖情况
  第77届纽约影评人协会奖 ?(2011)
  最好记载片(提名)
  1. Video
  2. ID                                       : 1
  3. Format                                   : AVC
  4. Format/Info                              : Advanced Video Codec
  5. Format profile                           : [email protected]
  6. Format settings                          : CABAC / 4 Ref Frames
  7. Format settings, CABAC                   : Yes
  8. Format settings, Reference frames        : 4 frames
  9. Codec ID                                 : V_MPEG4/ISO/AVC
  10. Duration                                 : 1 h 45 min
  11. Bit rate                                 : 9 257 kb/s
  12. Width                                    : 1 920 pixels
  13. Height                                   : 1 080 pixels
  14. Display aspect ratio                     : 16:9
  15. Frame rate mode                          : Constant
  16. Frame rate                               : 23.976 (24000/1001/189150) FPS
  17. Color space                              : YUV
  18. Chroma subsampling                       : 4:2:0
  19. Bit depth                                : 8 bits
  20. Scan type                                : Progressive
  21. Bits/(Pixel*Frame)                       : 0.186
  22. Stream size                              : 6.67 GiB (84%)
  23. Writing library                          : x264 core 116 r2037 f8ebd4a
  24. Encoding settings                        : cabac=1 / ref=4 / deblock=1:0:0 / analyse=0x3:0x133 / me=umh / subme=7 / psy=1 / psy_rd=1.00:0.00 / mixed_ref=0 / me_range=16 / chroma_me=1 / trellis=1 / 8x8dct=1 / cqm=0 / deadzone=21,11 / fast_pskip=0 / chroma_qp_offset=-2 / threads=12 / sliced_threads=0 / nr=0 / decimate=1 / interlaced=0 / bluray_compat=0 / constrained_intra=0 / bframes=5 / b_pyramid=2 / b_adapt=1 / b_bias=0 / direct=1 / weightb=1 / open_gop=0 / weightp=2 / keyint=250 / keyint_min=23 / scenecut=40 / intra_refresh=0 / rc_lookahead=40 / rc=2pass / mbtree=1 / bitrate=9257 / ratetol=1.0 / qcomp=0.60 / qpmin=10 / qpmax=51 / qpstep=4 / cplxblur=20.0 / qblur=0.5 / ip_ratio=1.40 / aq=1:1.00
  25. Language                                 : English
  26. Default                                  : Yes
  27. Forced                                   : No

  28. Audio
  29. ID                                       : 2
  30. Format                                   : DTS
  31. Format/Info                              : Digital Theater Systems
  32. Codec ID                                 : A_DTS
  33. Duration                                 : 1 h 45 min
  34. Bit rate mode                            : Constant
  35. Bit rate                                 : 1 509 kb/s
  36. Channel(s)                               : 6 channels
  37. Channel layout                           : C L R Ls Rs LFE
  38. Sampling rate                            : 48.0 kHz
  39. Frame rate                               : 93.750 FPS (512 SPF)
  40. Bit depth                                : 24 bits
  41. Compression mode                         : Lossy
  42. Stream size                              : 1.11 GiB (14%)
  43. Language                                 : English
  44. Default                                  : Yes
  45. Forced                                   : No

  46. Text #1
  47. ID                                       : 3
  48. Format                                   : UTF-8
  49. Codec ID                                 : S_TEXT/UTF8
  50. Codec ID/Info                            : UTF-8 Plain Text
  51. Language                                 : English
  52. Default                                  : No
  53. Forced                                   : No

  54. Text #2
  55. ID                                       : 4
  56. Format                                   : UTF-8
  57. Codec ID                                 : S_TEXT/UTF8
  58. Codec ID/Info                            : UTF-8 Plain Text
  59. Language                                 : Danish
  60. Default                                  : No
  61. Forced                                   : No

  62. Text #3
  63. ID                                       : 5
  64. Format                                   : UTF-8
  65. Codec ID                                 : S_TEXT/UTF8
  66. Codec ID/Info                            : UTF-8 Plain Text
  67. Language                                 : Finnish
  68. Default                                  : No
  69. Forced                                   : No

  70. Text #4
  71. ID                                       : 6
  72. Format                                   : UTF-8
  73. Codec ID                                 : S_TEXT/UTF8
  74. Codec ID/Info                            : UTF-8 Plain Text
  75. Language                                 : Norwegian
  76. Default                                  : No
  77. Forced                                   : No

  78. Text #5
  79. ID                                       : 7
  80. Format                                   : UTF-8
  81. Codec ID                                 : S_TEXT/UTF8
  82. Codec ID/Info                            : UTF-8 Plain Text
  83. Language                                 : Swedish
  84. Default                                  : No
  85. Forced                                   : No

  86. Menu
  87. 00:00:00.000                             : en:00:00:00.000
  88. 00:06:50.785                             : en:00:06:50.785
  89. 00:10:54.404                             : en:00:10:54.404
  90. 00:15:36.602                             : en:00:15:36.602
  91. 00:21:07.600                             : en:00:21:07.600
  92. 00:27:03.914                             : en:00:27:03.914
  93. 00:30:00.799                             : en:00:30:00.799
  94. 00:34:37.409                             : en:00:34:37.409
  95. 00:39:54.267                             : en:00:39:54.267
  96. 00:45:37.151                             : en:00:45:37.151
  97. 00:51:44.101                             : en:00:51:44.101
  98. 00:57:10.802                             : en:00:57:10.802
  99. 01:00:07.020                             : en:01:00:07.020
  100. 01:05:26.297                             : en:01:05:26.297
  101. 01:11:35.041                             : en:01:11:35.041
  102. 01:17:33.565                             : en:01:17:33.565
  103. 01:23:46.521                             : en:01:23:46.521
  104. 01:31:17.722                             : en:01:31:17.722
  105. 01:37:08.072                             : en:01:37:08.072
  106. 01:42:32.146                             : en:01:42:32.146
复制代码






                                       
                                       

                                       
                                       
                                       




回复

使用道具 举报

懒得打字嘛,点击右侧快捷回复 【右侧内容,后台自定义】
您需要登录后才可以回帖 登录 | 立即加入

本版积分规则

Archiver| |网站地图

Copyright © 2024 Comsenz Inc. Powered by 蓝光电影网

本站内容由用户自主分享和转载自互联网,转载目的在于传递更多信息,并不代表本网赞同其观点和对其真实性负责。

如有侵权、违反国家法律政策行为,请联系我们,我们会第一时间及时清除和处理!

举报反馈邮箱:4k1080.com@gmail.com

快速回复 返回顶部 返回列表