找回密码

查看: 1743|回复: 0

[喜剧] 黑衣人:全球追缉 Men.in.Black.International.2019.1080p.BluRay.REMUX.AVC.DTS-HD.MA.TrueHD.7.1.Atmos-FGT 28.84GB

[复制链接]
蓝光币
2039
发表于 2019-8-26 01:46:03 | 显示全部楼层 |阅读模式


◎译  名 黑衣人:全球追缉 / MIB 23 / MIB 4 / MIB星际战警:跨国行动(台) / Men in Black 4 / Men in Black IV / 黑衣人23 / 黑衣人4 / 黑衣人外传 / 黑衣人:国际保护者 / 黑超特警组:反转天下(港) / 黑超特警队4
◎片  名 Men in Black International
◎年  代 2019
◎产  地 美国
◎类  别 笑剧 / 行动 / 科幻
◎语  言 英语
◎上映日期 2019-06-12(台湾) / 2019-06-14(美国/中国大陆)
◎IMDb评分  5.7/10 from 27642 users
◎IMDb链接  http://www.imdb.com/title/tt2283336
◎豆瓣评分 5.7/10 from 69709 users
◎豆瓣链接 https://movie.douban.com/subject/19971676/
◎片  长 115分钟
◎导  演 F·加里·格雷 F. Gary Gray
◎编  剧 劳威尔·坎宁安  Lowell Cunningham / 马特·霍洛维 Matt Holloway / 阿特·马库姆 Art Marcum
◎主  演 克里斯·海姆斯沃斯 Chris Hemsworth
      泰莎·汤普森 Tessa Thompson
      丽贝卡·弗格森 Rebecca Ferguson
      库梅尔·南贾尼 Kumail Nanjiani
      拉菲·斯波 Rafe Spall
      艾玛·汤普森 Emma Thompson
      连姆·尼森 Liam Neeson
      Davina Sitaram
      纳西尔·贾玛 Nasir Jama
      Viktorija Faith
      Penelope Kapudija
      斯蒂芬·怀特 Stephen Wight
      安纳托·陶布曼 Anatole Taubman
      露丝·霍洛克斯 Ruth Horrocks
      贝恩·科拉科 Bern Colla?o
      马西·哈里尔 Marcy Harriell
      哈廷·帕特尔 Hiten Patel
      通恰伊·古奈什 Tuncay Gunes
      Adrian Alvarado
      史蒂芬·萨姆森 Stephen Samson
      Mandeiya Flory
      黄渤 Bo Huang
      伊隆·马斯克 Elon Musk

◎标  签 科幻 | 外星人 | 美国 | 笑剧 | 奸细 | 2019 | 行动 | 搞笑
◎简  介  
  全球最具影响力的典范科幻IP《黑衣人》周全升级!科幻电影之父史蒂文·斯皮尔伯格联手《速度与豪情8》导演F·加里·格雷,金牌班底大力巨献!英国黑衣人总部王牌捕快H(锤哥)与新晋捕快M(泰莎·汤普森)在阻止外星团伙入侵的进程中意外铲除了隐藏在黑衣人构造中的内奸,成功拯救天下 。
影片中,各类脑洞大开的外星人和倾覆设想的高科技装备轮流退场,热血沸腾惊心动魄的行动追车排场层见叠出,完善构建出全新的黑衣人宇宙观。本片将于2019年6月14日本地同步北美上映。
  1. Video
  2. ID                                       : 1
  3. Format                                   : AVC
  4. Format/Info                              : Advanced Video Codec
  5. Format profile                           : [email protected]
  6. Format settings                          : CABAC / 2 Ref Frames
  7. Format settings, CABAC                   : Yes
  8. Format settings, Reference frames        : 2 frames
  9. Format settings, GOP                     : M=1, N=10
  10. Codec ID                                 : V_MPEG4/ISO/AVC
  11. Duration                                 : 1 h 54 min
  12. Bit rate mode                            : Variable
  13. Bit rate                                 : 25.7 Mb/s
  14. Width                                    : 1 920 pixels
  15. Height                                   : 1 080 pixels
  16. Display aspect ratio                     : 16:9
  17. Frame rate mode                          : Constant
  18. Frame rate                               : 23.976 (24000/1001) FPS
  19. Color space                              : YUV
  20. Chroma subsampling                       : 4:2:0
  21. Bit depth                                : 8 bits
  22. Scan type                                : Progressive
  23. Bits/(Pixel*Frame)                       : 0.517
  24. Stream size                              : 20.6 GiB (71%)
  25. Title                                    : Men.in.Black.International.2019.1080p.BluRay.REMUX.AVC.DTS-HD.MA.TrueHD.7.1.Atmos-FGT
  26. Language                                 : English
  27. Default                                  : No
  28. Forced                                   : No
  29. Audio #1
  30. ID                                       : 2
  31. Format                                   : MLP FBA 16-ch
  32. Format/Info                              : Meridian Lossless Packing FBA with 16-channel presentation
  33. Commercial name                          : Dolby TrueHD with Dolby Atmos
  34. Codec ID                                 : A_TRUEHD
  35. Duration                                 : 1 h 54 min
  36. Bit rate mode                            : Variable
  37. Bit rate                                 : 3 140 kb/s
  38. Maximum bit rate                         : 3 762 kb/s
  39. Channel(s)                               : 8 channels
  40. Channel layout                           : L R C LFE Ls Rs Lb Rb
  41. Sampling rate                            : 48.0 kHz
  42. Frame rate                               : 1 200.000 FPS (40 SPF)
  43. Compression mode                         : Lossless
  44. Stream size                              : 2.52 GiB (9%)
  45. Title                                    : Men.in.Black.International.2019.1080p.BluRay.REMUX.AVC.DTS-HD.MA.TrueHD.7.1.Atmos-FGT
  46. Language                                 : English
  47. Default                                  : Yes
  48. Forced                                   : No
  49. Number of dynamic objects                : 11
  50. Bed channel count                        : 1 channel
  51. Bed channel configuration                : LFE
  52. Audio #2
  53. ID                                       : 3
  54. Format                                   : DTS XLL
  55. Format/Info                              : Digital Theater Systems
  56. Commercial name                          : DTS-HD Master Audio
  57. Codec ID                                 : A_DTS
  58. Duration                                 : 1 h 54 min
  59. Bit rate mode                            : Variable
  60. Bit rate                                 : 3 789 kb/s
  61. Channel(s)                               : 8 channels
  62. Channel layout                           : C L R LFE Lb Rb Lss Rss
  63. Sampling rate                            : 48.0 kHz
  64. Frame rate                               : 93.750 FPS (512 SPF)
  65. Bit depth                                : 24 bits
  66. Compression mode                         : Lossless
  67. Stream size                              : 3.04 GiB (11%)
  68. Title                                    : Men.in.Black.International.2019.1080p.BluRay.REMUX.AVC.DTS-HD.MA.TrueHD.7.1.Atmos-FGT
  69. Language                                 : English
  70. Default                                  : No
  71. Forced                                   : No
  72. Audio #3
  73. ID                                       : 4
  74. Format                                   : AC-3
  75. Format/Info                              : Audio Coding 3
  76. Commercial name                          : Dolby Digital
  77. Codec ID                                 : A_AC3
  78. Duration                                 : 1 h 54 min
  79. Bit rate mode                            : Constant
  80. Bit rate                                 : 640 kb/s
  81. Channel(s)                               : 6 channels
  82. Channel layout                           : L R C LFE Ls Rs
  83. Sampling rate                            : 48.0 kHz
  84. Frame rate                               : 31.250 FPS (1536 SPF)
  85. Bit depth                                : 16 bits
  86. Compression mode                         : Lossy
  87. Stream size                              : 526 MiB (2%)
  88. Title                                    : Men.in.Black.International.2019.1080p.BluRay.REMUX.AVC.DTS-HD.MA.TrueHD.7.1.Atmos-FGT
  89. Language                                 : English
  90. Service kind                             : Complete Main
  91. Default                                  : No
  92. Forced                                   : No
  93. Audio #4
  94. ID                                       : 5
  95. Format                                   : AC-3
  96. Format/Info                              : Audio Coding 3
  97. Commercial name                          : Dolby Digital
  98. Codec ID                                 : A_AC3
  99. Duration                                 : 1 h 54 min
  100. Bit rate mode                            : Constant
  101. Bit rate                                 : 640 kb/s
  102. Channel(s)                               : 6 channels
  103. Channel layout                           : L R C LFE Ls Rs
  104. Sampling rate                            : 48.0 kHz
  105. Frame rate                               : 31.250 FPS (1536 SPF)
  106. Bit depth                                : 16 bits
  107. Compression mode                         : Lossy
  108. Stream size                              : 526 MiB (2%)
  109. Title                                    : Men.in.Black.International.2019.1080p.BluRay.REMUX.AVC.DTS-HD.MA.TrueHD.7.1.Atmos-FGT
  110. Language                                 : English
  111. Service kind                             : Complete Main
  112. Default                                  : No
  113. Forced                                   : No
  114. Audio #5
  115. ID                                       : 6
  116. Format                                   : AC-3
  117. Format/Info                              : Audio Coding 3
  118. Commercial name                          : Dolby Digital
  119. Codec ID                                 : A_AC3
  120. Duration                                 : 1 h 54 min
  121. Bit rate mode                            : Constant
  122. Bit rate                                 : 640 kb/s
  123. Channel(s)                               : 6 channels
  124. Channel layout                           : L R C LFE Ls Rs
  125. Sampling rate                            : 48.0 kHz
  126. Frame rate                               : 31.250 FPS (1536 SPF)
  127. Bit depth                                : 16 bits
  128. Compression mode                         : Lossy
  129. Stream size                              : 526 MiB (2%)
  130. Title                                    : Men.in.Black.International.2019.1080p.BluRay.REMUX.AVC.DTS-HD.MA.TrueHD.7.1.Atmos-FGT
  131. Language                                 : French
  132. Service kind                             : Complete Main
  133. Default                                  : No
  134. Forced                                   : No
  135. Audio #6
  136. ID                                       : 7
  137. Format                                   : AC-3
  138. Format/Info                              : Audio Coding 3
  139. Commercial name                          : Dolby Digital
  140. Codec ID                                 : A_AC3
  141. Duration                                 : 1 h 54 min
  142. Bit rate mode                            : Constant
  143. Bit rate                                 : 640 kb/s
  144. Channel(s)                               : 6 channels
  145. Channel layout                           : L R C LFE Ls Rs
  146. Sampling rate                            : 48.0 kHz
  147. Frame rate                               : 31.250 FPS (1536 SPF)
  148. Bit depth                                : 16 bits
  149. Compression mode                         : Lossy
  150. Stream size                              : 526 MiB (2%)
  151. Title                                    : Men.in.Black.International.2019.1080p.BluRay.REMUX.AVC.DTS-HD.MA.TrueHD.7.1.Atmos-FGT
  152. Language                                 : French
  153. Service kind                             : Complete Main
  154. Default                                  : No
  155. Forced                                   : No
  156. Audio #7
  157. ID                                       : 8
  158. Format                                   : AC-3
  159. Format/Info                              : Audio Coding 3
  160. Commercial name                          : Dolby Digital
  161. Codec ID                                 : A_AC3
  162. Duration                                 : 1 h 54 min
  163. Bit rate mode                            : Constant
  164. Bit rate                                 : 640 kb/s
  165. Channel(s)                               : 6 channels
  166. Channel layout                           : L R C LFE Ls Rs
  167. Sampling rate                            : 48.0 kHz
  168. Frame rate                               : 31.250 FPS (1536 SPF)
  169. Bit depth                                : 16 bits
  170. Compression mode                         : Lossy
  171. Stream size                              : 526 MiB (2%)
  172. Title                                    : Men.in.Black.International.2019.1080p.BluRay.REMUX.AVC.DTS-HD.MA.TrueHD.7.1.Atmos-FGT
  173. Language                                 : Spanish
  174. Service kind                             : Complete Main
  175. Default                                  : No
  176. Forced                                   : No
  177. Text #1
  178. ID                                       : 9
  179. Format                                   : UTF-8
  180. Codec ID                                 : S_TEXT/UTF8
  181. Codec ID/Info                            : UTF-8 Plain Text
  182. Duration                                 : 1 h 43 min
  183. Bit rate                                 : 68 b/s
  184. Count of elements                        : 1536
  185. Stream size                              : 51.8 KiB (0%)
  186. Title                                    : English-SRT
  187. Language                                 : English
  188. Default                                  : Yes
  189. Forced                                   : No
  190. Text #2
  191. ID                                       : 10
  192. Format                                   : UTF-8
  193. Codec ID                                 : S_TEXT/UTF8
  194. Codec ID/Info                            : UTF-8 Plain Text
  195. Duration                                 : 1 h 43 min
  196. Bit rate                                 : 73 b/s
  197. Count of elements                        : 1720
  198. Stream size                              : 55.6 KiB (0%)
  199. Title                                    : English-SDH-SRT
  200. Language                                 : English
  201. Default                                  : No
  202. Forced                                   : No
  203. Text #3
  204. ID                                       : 11
  205. Format                                   : PGS
  206. Muxing mode                              : zlib
  207. Codec ID                                 : S_HDMV/PGS
  208. Codec ID/Info                            : Picture based subtitle format used on BDs/HD-DVDs
  209. Duration                                 : 1 h 44 min
  210. Bit rate                                 : 45.5 kb/s
  211. Count of elements                        : 3560
  212. Stream size                              : 34.1 MiB (0%)
  213. Title                                    : English-PGS
  214. Language                                 : English
  215. Default                                  : No
  216. Forced                                   : No
  217. Text #4
  218. ID                                       : 12
  219. Format                                   : PGS
  220. Muxing mode                              : zlib
  221. Codec ID                                 : S_HDMV/PGS
  222. Codec ID/Info                            : Picture based subtitle format used on BDs/HD-DVDs
  223. Duration                                 : 1 h 43 min
  224. Bit rate                                 : 40.4 kb/s
  225. Count of elements                        : 2970
  226. Stream size                              : 29.9 MiB (0%)
  227. Title                                    : English-SDH-PGS
  228. Language                                 : English
  229. Default                                  : No
  230. Forced                                   : No
  231. Text #5
  232. ID                                       : 13
  233. Format                                   : PGS
  234. Muxing mode                              : zlib
  235. Codec ID                                 : S_HDMV/PGS
  236. Codec ID/Info                            : Picture based subtitle format used on BDs/HD-DVDs
  237. Duration                                 : 1 h 53 min
  238. Bit rate                                 : 29.2 kb/s
  239. Count of elements                        : 2942
  240. Stream size                              : 23.6 MiB (0%)
  241. Title                                    : French-PGS
  242. Language                                 : French
  243. Default                                  : No
  244. Forced                                   : No
  245. Text #6
  246. ID                                       : 14
  247. Format                                   : PGS
  248. Muxing mode                              : zlib
  249. Codec ID                                 : S_HDMV/PGS
  250. Codec ID/Info                            : Picture based subtitle format used on BDs/HD-DVDs
  251. Duration                                 : 1 h 53 min
  252. Bit rate                                 : 35.1 kb/s
  253. Count of elements                        : 2854
  254. Stream size                              : 28.5 MiB (0%)
  255. Title                                    : Spanish-PGS
  256. Language                                 : Spanish
  257. Default                                  : No
  258. Forced                                   : No
  259. Text #7
  260. ID                                       : 15
  261. Format                                   : PGS
  262. Muxing mode                              : zlib
  263. Codec ID                                 : S_HDMV/PGS
  264. Codec ID/Info                            : Picture based subtitle format used on BDs/HD-DVDs
  265. Duration                                 : 1 h 53 min
  266. Bit rate                                 : 357 b/s
  267. Count of elements                        : 38
  268. Stream size                              : 297 KiB (0%)
  269. Title                                    : Spanish-FORCD-PGS
  270. Language                                 : Spanish
  271. Default                                  : No
  272. Forced                                   : No
  273. Text #8
  274. ID                                       : 16
  275. Format                                   : PGS
  276. Muxing mode                              : zlib
  277. Codec ID                                 : S_HDMV/PGS
  278. Codec ID/Info                            : Picture based subtitle format used on BDs/HD-DVDs
  279. Duration                                 : 1 h 44 min
  280. Bit rate                                 : 252 b/s
  281. Count of elements                        : 30
  282. Stream size                              : 194 KiB (0%)
  283. Title                                    : French-PGS
  284. Language                                 : French
  285. Default                                  : No
  286. Forced                                   : No
  287. Text #9
  288. ID                                       : 17
  289. Format                                   : PGS
  290. Muxing mode                              : zlib
  291. Codec ID                                 : S_HDMV/PGS
  292. Codec ID/Info                            : Picture based subtitle format used on BDs/HD-DVDs
  293. Duration                                 : 1 h 10 min
  294. Bit rate                                 : 376 b/s
  295. Count of elements                        : 24
  296. Stream size                              : 194 KiB (0%)
  297. Title                                    : French-FORCED-PGS
  298. Language                                 : French
  299. Default                                  : No
  300. Forced                                   : No
  301. Menu
  302. 00:00:00.000                             : en:Chapter 01
  303. 00:07:58.686                             : en:Chapter 02
  304. 00:15:33.098                             : en:Chapter 03
  305. 00:20:09.374                             : en:Chapter 04
  306. 00:27:16.968                             : en:Chapter 05
  307. 00:34:29.650                             : en:Chapter 06
  308. 00:46:10.267                             : en:Chapter 07
  309. 00:50:32.029                             : en:Chapter 08
  310. 00:59:01.204                             : en:Chapter 09
  311. 01:03:12.914                             : en:Chapter 10
  312. 01:10:51.247                             : en:Chapter 11
  313. 01:14:35.679                             : en:Chapter 12
  314. 01:25:31.209                             : en:Chapter 13
  315. 01:28:49.574                             : en:Chapter 14
  316. 01:34:29.246                             : en:Chapter 15
  317. 01:43:31.788                             : en:Chapter 16
复制代码






                                       
                                       

                                       
                                       
                                       




黑衣人:全球追缉 Men.in.Black.International.2019.1080p.BluRay.REMUX.AVC.DTS-HD.MA.TrueHD.7.1.Atmos-FGT 28.84GB

Men.in.Black.International.2019.1080p.BluRay.REMUX.AVC.DTS-HD.MA.TrueHD.7.1.Atmo.torrent

72.72 KB, 下载次数: 15, 下载积分: 蓝光币 -2

回复

使用道具 举报

懒得打字嘛,点击右侧快捷回复 【右侧内容,后台自定义】
您需要登录后才可以回帖 登录 | 立即加入

本版积分规则

Archiver| |网站地图

Copyright © 2024 Comsenz Inc. Powered by 蓝光电影网

本站内容由用户自主分享和转载自互联网,转载目的在于传递更多信息,并不代表本网赞同其观点和对其真实性负责。

如有侵权、违反国家法律政策行为,请联系我们,我们会第一时间及时清除和处理!

举报反馈邮箱:4k1080.com@gmail.com

快速回复 返回顶部 返回列表