找回密码

查看: 1525|回复: 0

[剧情] 暗夜哭声 A.Cry.in.the.Dark.1988.1080p.BluRay.REMUX.AVC.DTS-HD.MA.2.0-FGT 19.36GB

[复制链接]
蓝光币
2039
发表于 2019-10-7 22:56:43 | 显示全部楼层 |阅读模式


◎译  名 暗夜哭声 / A Cry in the Dark / 黑黑暗的呐喊 / 黑黑暗的呼号 / 黑黑暗的呼喊
◎片  名 Evil Angels
◎年  代 1988
◎产  地 澳大利亚 / 美国
◎类  别 剧情
◎语  言 英语
◎上映日期 1988-11-03(澳大利亚)
◎IMDb评分  6.9/10 from 8499 users
◎IMDb链接  http://www.imdb.com/title/tt0094924
◎豆瓣评分 7.6/10 from 487 users
◎豆瓣链接 https://movie.douban.com/subject/1299082/
◎片  长 120分钟
◎导  演 弗雷德·谢皮西 Fred Schepisi
◎编  剧 弗雷德·谢皮西 Fred Schepisi / Robert Caswell
◎主  演 梅丽尔·斯特里普 Meryl Streep
       山姆·尼尔 Sam Neill
       Dale Reeves
       David Hoflin
       Jason Reason
       Michael Wetter

◎标  签 澳大利亚 | 梅丽尔·斯特里普 | 法令 | 剧情 | MerylStreep | 1988 | 美国 | 澳大利亚电影
◎简  介  
  故事发生在1980年的澳大利亚,迈克尔(山姆·尼尔 Sam Neill 饰)和妻子林迪(梅丽尔·斯特里普 Meryl Streep 饰)带着他们的三个孩子正在停止一场家庭观光。某天夜里,夫妻两人将最小的孩子阿扎利亚留在襁褓当中外出访友,哪晓得一场意外的发生夺走了阿扎利亚幼小的生命。
  让迈克尔和林迪万万没有想到的是,他们除了要承受落空孩子的庞大悲痛之外,居然还遭到了控告,控告夫妻两人正是幕后的凶手。随后,法庭起头了对于该案件的冗长的审判,虽然缺少关键的证据,但林迪还是被判处了毕生禁锢。在狱中,林迪生下了第四个孩子,孩子被交由迈克尔抚养。冗长的牢狱光阴里,林迪不竭的上诉,并终极为自己挣得了明净和自在。
◎获奖情况  
  第61届奥斯卡金像奖(1989)
  最好女配角(提名) 梅丽尔·斯特里普
  第42届戛纳电影节(1989)
  主比赛单元 金棕榈奖(提名) 弗雷德·谢皮西
  主比赛单元 最好女演员 梅丽尔·斯特里普
  1. Video
  2. ID                                       : 1
  3. Format                                   : AVC
  4. Format/Info                              : Advanced Video Codec
  5. Format profile                           : [email protected]
  6. Format settings                          : CABAC / 3 Ref Frames
  7. Format settings, CABAC                   : Yes
  8. Format settings, Reference frames        : 3 frames
  9. Codec ID                                 : V_MPEG4/ISO/AVC
  10. Duration                                 : 2 h 1 min
  11. Bit rate mode                            : Variable
  12. Bit rate                                 : 22.0 Mb/s
  13. Maximum bit rate                         : 34.0 Mb/s
  14. Width                                    : 1 920 pixels
  15. Height                                   : 1 080 pixels
  16. Display aspect ratio                     : 16:9
  17. Frame rate mode                          : Constant
  18. Frame rate                               : 23.976 (24000/1001) FPS
  19. Color space                              : YUV
  20. Chroma subsampling                       : 4:2:0
  21. Bit depth                                : 8 bits
  22. Scan type                                : Progressive
  23. Bits/(Pixel*Frame)                       : 0.443
  24. Stream size                              : 18.0 GiB (93%)
  25. Title                                    : A.Cry.in.the.Dark.1988.1080p.BluRay.REMUX.AVC.DTS-HD.MA.2.0-FGT
  26. Writing library                          : x264 core 152 r2854 e9a5903
  27. Encoding settings                        : cabac=1 / ref=1 / deblock=1:-1:-1 / analyse=0x1:0 / me=dia / subme=2 / psy=1 / psy_rd=1.00:0.15 / mixed_ref=0 / me_range=16 / chroma_me=1 / trellis=0 / 8x8dct=0 / cqm=0 / deadzone=21,11 / fast_pskip=1 / chroma_qp_offset=0 / threads=16 / lookahead_threads=5 / sliced_threads=0 / slices=4 / nr=0 / decimate=1 / interlaced=0 / bluray_compat=1 / constrained_intra=0 / bframes=3 / b_pyramid=1 / b_adapt=1 / b_bias=0 / direct=3 / weightb=1 / open_gop=0 / weightp=1 / keyint=24 / keyint_min=1 / scenecut=40 / intra_refresh=0 / rc_lookahead=24 / rc=abr / mbtree=1 / bitrate=22000 / ratetol=1.0 / qcomp=0.60 / qpmin=0 / qpmax=69 / qpstep=4 / vbv_maxrate=34000 / vbv_bufsize=30000 / nal_hrd=vbr / filler=0 / ip_ratio=1.40 / aq=1:1.00
  28. Language                                 : English
  29. Default                                  : No
  30. Forced                                   : No
  31. Color range                              : Limited
  32. Color primaries                          : BT.709
  33. Transfer characteristics                 : BT.709
  34. Matrix coefficients                      : BT.709
  35. Audio
  36. ID                                       : 2
  37. Format                                   : DTS XLL
  38. Format/Info                              : Digital Theater Systems
  39. Commercial name                          : DTS-HD Master Audio
  40. Codec ID                                 : A_DTS
  41. Duration                                 : 2 h 1 min
  42. Bit rate mode                            : Variable
  43. Bit rate                                 : 1 557 kb/s
  44. Channel(s)                               : 2 channels
  45. Channel layout                           : L R
  46. Sampling rate                            : 48.0 kHz
  47. Frame rate                               : 93.750 FPS (512 SPF)
  48. Bit depth                                : 16 bits
  49. Compression mode                         : Lossless
  50. Stream size                              : 1.32 GiB (7%)
  51. Title                                    : A.Cry.in.the.Dark.1988.1080p.BluRay.REMUX.AVC.DTS-HD.MA.2.0-FGT
  52. Language                                 : English
  53. Default                                  : Yes
  54. Forced                                   : No
  55. Text
  56. ID                                       : 3
  57. Format                                   : PGS
  58. Muxing mode                              : zlib
  59. Codec ID                                 : S_HDMV/PGS
  60. Codec ID/Info                            : Picture based subtitle format used on BDs/HD-DVDs
  61. Duration                                 : 1 h 54 min
  62. Bit rate                                 : 32.5 kb/s
  63. Count of elements                        : 3033
  64. Stream size                              : 26.7 MiB (0%)
  65. Title                                    : English-PGS
  66. Language                                 : English
  67. Default                                  : Yes
  68. Forced                                   : No
  69. Menu
  70. 00:00:00.000                             : en:Chapter 01
  71. 00:08:50.821                             : en:Chapter 02
  72. 00:20:10.876                             : en:Chapter 03
  73. 00:29:39.861                             : en:Chapter 04
  74. 00:39:32.286                             : en:Chapter 05
  75. 00:50:01.373                             : en:Chapter 06
  76. 01:00:31.919                             : en:Chapter 07
  77. 01:09:42.720                             : en:Chapter 08
  78. 01:20:03.799                             : en:Chapter 09
  79. 01:30:25.920                             : en:Chapter 10
  80. 01:41:28.499                             : en:Chapter 11
  81. 01:51:22.217                             : en:Chapter 12
复制代码






                                       
                                       

                                       
                                       
                                       




回复

使用道具 举报

懒得打字嘛,点击右侧快捷回复 【右侧内容,后台自定义】
您需要登录后才可以回帖 登录 | 立即加入

本版积分规则

Archiver| |网站地图

Copyright © 2024 Comsenz Inc. Powered by 蓝光电影网

本站内容由用户自主分享和转载自互联网,转载目的在于传递更多信息,并不代表本网赞同其观点和对其真实性负责。

如有侵权、违反国家法律政策行为,请联系我们,我们会第一时间及时清除和处理!

举报反馈邮箱:4k1080.com@gmail.com

快速回复 返回顶部 返回列表