找回密码

查看: 1202|回复: 0

[其他] 黑暗之心/星光背后:哥普拉传奇 Hearts.Of.Darkness.A.Filmmakers.Apocalypse.1991.1080p.BluRay.x264-NORDiCHD 6.56GB

[复制链接]
蓝光币
2039
发表于 2020-9-19 21:25:12 | 显示全部楼层 |阅读模式


◎译  名 黑暗之心/星光背后:哥普拉传奇/星光背后:科波拉传奇/黑暗之心:一个电影人的启迪录
◎片  名 Hearts of Darkness: A Filmmaker's Apocalypse
◎年  代 1991
◎产  地 美国
◎类  别 记载片
◎语  言 英语
◎上映日期 1991-11-27(美国)
◎IMDb评分  8.1/10 from 18651 users
◎IMDb链接  https://www.imdb.com/title/tt0102015/
◎豆瓣评分 8.5/10 from 872 users
◎豆瓣链接 https://movie.douban.com/subject/1296581/
◎片  长 96分钟
◎导  演 法克斯·巴尔 Fax Bahr / 乔治·海肯卢珀 George Hickenlooper / 埃莉诺·科波拉 Eleanor Coppola
◎编  剧 法克斯·巴尔 Fax Bahr / 乔治·海肯卢珀 George Hickenlooper
◎主  演 弗朗西斯·福特·科波拉 Francis Ford Coppola
       埃莉诺·科波拉 Eleanor Coppola
       奥逊·威尔斯 Orson Welles
       约翰·米利厄斯 John Milius
       乔治·卢卡斯 George Lucas
       汤姆·斯滕伯格 Tom Sternberg
       山姆·伯顿斯 Sam Bottoms
       阿尔伯特·海尔 Albert Hall
       索菲亚·科波拉 Sofia Coppola
       考林·加普 Colleen Camp
       道格·克莱鲍恩 Doug Claybourne
       弗雷德·鲁斯 Fred Roos
       马丁·辛 Martin Sheen
       迪安·塔沃拉里斯 Dean Tavoularis
       G·D·斯普拉德林 G.D. Spradlin
       哈里森·福特 Harrison Ford
       弗雷德里克·福瑞斯特 Frederic Forrest
       罗伯特·德尼罗 Robert De Niro
       罗曼·科波拉 Roman Coppola
       丹尼斯·霍珀 Dennis Hopper
       维托里奥·斯托拉罗 Vittorio Storaro
       罗伯特·杜瓦尔 Robert Duvall
       马龙·白兰度 Marlon Brando
       劳伦斯·菲什伯恩 Laurence Fishburne
       吉亚·科波拉 Gia Coppola
◎标  签 记载片 | 美国 | 科波拉 | 1991 | 美国电影 | 弗朗西斯·福特·科波拉 | 1990s | 紀錄片
◎简  介


  假如你喜好导演弗兰西斯·科波拉,而且看过他执导的《现代启迪录》,那末这部拍摄《现》片建造内幕的记载片就不应当错过了。本片忠厚记载《现》片全部多难多难的摄制进程,并深入科波拉那时的阴暗精神状态,使人领会到他恍如就是片中马龙.白兰度饰演的寇兹上校 那末死心塌地。想领会电影导演是什么回事?本片是一个很好的参考材料。
  1. Video
  2. ID                                       : 1
  3. Format                                   : AVC
  4. Format/Info                              : Advanced Video Codec
  5. Format profile                           : [email protected]
  6. Format settings                          : CABAC / 4 Ref Frames
  7. Format settings, CABAC                   : Yes
  8. Format settings, Reference frames        : 4 frames
  9. Codec ID                                 : V_MPEG4/ISO/AVC
  10. Duration                                 : 1 h 35 min
  11. Bit rate                                 : 9 015 kb/s
  12. Width                                    : 1 488 pixels
  13. Height                                   : 1 080 pixels
  14. Display aspect ratio                     : 1.378
  15. Frame rate mode                          : Constant
  16. Frame rate                               : 23.976 (24000/1001/189150) FPS
  17. Color space                              : YUV
  18. Chroma subsampling                       : 4:2:0
  19. Bit depth                                : 8 bits
  20. Scan type                                : Progressive
  21. Bits/(Pixel*Frame)                       : 0.234
  22. Stream size                              : 5.91 GiB (90%)
  23. Writing library                          : x264 core 115 r2008 4c552d8
  24. Encoding settings                        : cabac=1 / ref=4 / deblock=1:0:0 / analyse=0x3:0x133 / me=umh / subme=7 / psy=1 / psy_rd=1.00:0.00 / mixed_ref=0 / me_range=16 / chroma_me=1 / trellis=1 / 8x8dct=1 / cqm=0 / deadzone=21,11 / fast_pskip=0 / chroma_qp_offset=-2 / threads=12 / sliced_threads=0 / nr=0 / decimate=1 / interlaced=0 / bluray_compat=0 / constrained_intra=0 / bframes=5 / b_pyramid=2 / b_adapt=1 / b_bias=0 / direct=1 / weightb=1 / open_gop=0 / weightp=2 / keyint=250 / keyint_min=23 / scenecut=40 / intra_refresh=0 / rc_lookahead=40 / rc=2pass / mbtree=1 / bitrate=9015 / ratetol=1.0 / qcomp=0.60 / qpmin=10 / qpmax=51 / qpstep=4 / cplxblur=20.0 / qblur=0.5 / ip_ratio=1.40 / aq=1:1.00
  25. Language                                 : English
  26. Default                                  : Yes
  27. Forced                                   : No

  28. Audio
  29. ID                                       : 2
  30. Format                                   : DTS
  31. Format/Info                              : Digital Theater Systems
  32. Codec ID                                 : A_DTS
  33. Duration                                 : 1 h 35 min
  34. Bit rate mode                            : Constant
  35. Bit rate                                 : 768 kb/s
  36. Channel(s)                               : 2 channels
  37. Channel layout                           : L R
  38. Sampling rate                            : 48.0 kHz
  39. Frame rate                               : 93.750 FPS (512 SPF)
  40. Bit depth                                : 24 bits
  41. Compression mode                         : Lossy
  42. Stream size                              : 527 MiB (8%)
  43. Language                                 : English
  44. Default                                  : Yes
  45. Forced                                   : No

  46. Text
  47. ID                                       : 3
  48. Format                                   : UTF-8
  49. Codec ID                                 : S_TEXT/UTF8
  50. Codec ID/Info                            : UTF-8 Plain Text
  51. Language                                 : English
  52. Default                                  : No
  53. Forced                                   : No

  54. Menu
  55. 00:00:00.000                             : en:00:00:00.000
  56. 00:03:08.563                             : en:00:03:08.563
  57. 00:04:43.909                             : en:00:04:43.909
  58. 00:06:28.513                             : en:00:06:28.513
  59. 00:08:31.553                             : en:00:08:31.553
  60. 00:10:51.192                             : en:00:10:51.192
  61. 00:11:51.336                             : en:00:11:51.336
  62. 00:13:35.940                             : en:00:13:35.940
  63. 00:15:28.928                             : en:00:15:28.928
  64. 00:17:39.058                             : en:00:17:39.058
  65. 00:19:20.159                             : en:00:19:20.159
  66. 00:22:57.876                             : en:00:22:57.876
  67. 00:25:12.970                             : en:00:25:12.970
  68. 00:28:16.528                             : en:00:28:16.528
  69. 00:30:32.581                             : en:00:30:32.581
  70. 00:33:08.111                             : en:00:33:08.111
  71. 00:37:03.847                             : en:00:37:03.847
  72. 00:42:26.836                             : en:00:42:26.836
  73. 00:44:21.826                             : en:00:44:21.826
  74. 00:49:37.975                             : en:00:49:37.975
  75. 00:55:01.715                             : en:00:55:01.715
  76. 01:01:21.803                             : en:01:01:21.803
  77. 01:05:58.454                             : en:01:05:58.454
  78. 01:07:44.060                             : en:01:07:44.060
  79. 01:11:06.053                             : en:01:11:06.053
  80. 01:13:04.005                             : en:01:13:04.005
  81. 01:15:41.787                             : en:01:15:41.787
  82. 01:21:08.864                             : en:01:21:08.864
  83. 01:25:02.848                             : en:01:25:02.848
  84. 01:31:29.484                             : en:01:31:29.484
  85. 01:33:17.217                             : en:01:33:17.217
复制代码






                                       
                                       

                                       
                                       
                                       




回复

使用道具 举报

懒得打字嘛,点击右侧快捷回复 【右侧内容,后台自定义】
您需要登录后才可以回帖 登录 | 立即加入

本版积分规则

Archiver| |网站地图

Copyright © 2024 Comsenz Inc. Powered by 蓝光电影网

本站内容由用户自主分享和转载自互联网,转载目的在于传递更多信息,并不代表本网赞同其观点和对其真实性负责。

如有侵权、违反国家法律政策行为,请联系我们,我们会第一时间及时清除和处理!

举报反馈邮箱:4k1080.com@gmail.com

快速回复 返回顶部 返回列表