找回密码

查看: 1592|回复: 0

[喜剧] 爱宠大机密2/Pet Pet当家2 The.Secret.Life.of.Pets.2.2019.1080p.BluRay.REMUX.AVC.DTS-HD.MA.TrueHD.7.1.Atmos-FGT 25.66GB

[复制链接]
蓝光币
2048
发表于 2019-8-21 16:04:04 | 显示全部楼层 |阅读模式


◎译  名 爱宠大机密2 / Pet Pet当家2(港) / 宠物当家2(台) / 宠物的奥秘生活2
◎片  名 The Secret Life of Pets 2
◎年  代 2019
◎产  地 美国
◎类  别 笑剧 / 动画 / 冒险
◎语  言 英语
◎上映日期 2019-06-07(美国) / 2019-07-05(中国大陆)
◎IMDb评分  6.5/10 from 12078 users
◎IMDb链接  http://www.imdb.com/title/tt5113040
◎豆瓣评分 7.2/10 from 35524 users
◎豆瓣链接 https://movie.douban.com/subject/26848167/
◎片  长 86分钟
◎导  演 克里斯·雷纳德 Chris Renaud
◎编  剧 布莱恩·林奇 Brian Lynch
◎主  演 帕顿·奥斯瓦尔特 Patton Oswalt
       凯文·哈特 Kevin Hart
       哈里森·福特 Harrison Ford
       艾瑞克·斯通斯崔特 Eric Stonestreet
       珍妮·斯蕾特 Jenny Slate
       蒂凡尼·哈迪斯 Tiffany Haddish
       蕾克·贝尔 Lake Bell
       达纳·卡维 Dana Carvey
       鲍比·莫尼汉 Bobby Moynihan
       汉尼拔·布勒斯 Hannibal Buress
       克里斯·雷纳德 Chris Renaud
       艾丽·坎伯尔 Ellie Kemper
       皮特·霍尔姆斯 Pete Holmes
       尼克·克罗尔 Nick Kroll
       肖恩·吉布朗尼 Sean Giambrone
       梅雷迪斯·萨拉格尔 Meredith Salenger
       迈克尔·贝亚蒂 Michael Beattie
       大卫·阿克德 David Acord
       斯科特·摩西尔 Scott Mosier
       杰米·卡米尔 Jaime Camil
       拉瑞恩·纽曼 Laraine Newman
       布莱恩·T·德莱尼 Brian T. Delaney
       杰西卡·迪西可 Jessica Di Cicco
       桑德拉·艾切维里亚 Sandra Echeverría
       加斯·詹宁斯 Garth Jennings
       塔拉·斯特朗 Tara Strong
       弗雷德·塔特西奥 Fred Tatasciore
       约翰·卡西尔 John Kassir
       斯科特·门维尔 Scott Menville
       马修·伍德 Matthew Wood

◎标  签 动画 | 宠物 | 笑剧 | 美国 | 搞笑 | 萌 | 2019 | 动物
◎简  介  
  《爱宠大机密2》将延续2016年炎天颤动一时的《爱宠大机密》的故事,报告宠物在我们天天离家工作或上学后的生活。照明文娱开创人兼首席履行官克里斯·梅勒丹德利和他久长以来的合作伙伴珍娜·海莉将配合建造这部续集。《爱宠大机密》是那时开画成就最好的原创电影,非论是动画片还是其他范例。
  《爱宠大机密2》继续由布莱恩·林奇(《小黄人大眼萌》)编剧,并再一次由克里斯·雷纳德(《神偷奶爸》系列,《老雷斯的故事》)执导。
  1. Video
  2. ID                                       : 1
  3. Format                                   : AVC
  4. Format/Info                              : Advanced Video Codec
  5. Format profile                           : [email protected]
  6. Format settings                          : CABAC / 4 Ref Frames
  7. Format settings, CABAC                   : Yes
  8. Format settings, Reference frames        : 4 frames
  9. Codec ID                                 : V_MPEG4/ISO/AVC
  10. Duration                                 : 1 h 26 min
  11. Bit rate mode                            : Variable
  12. Bit rate                                 : 32.1 Mb/s
  13. Maximum bit rate                         : 35.0 Mb/s
  14. Width                                    : 1 920 pixels
  15. Height                                   : 1 080 pixels
  16. Display aspect ratio                     : 16:9
  17. Frame rate mode                          : Constant
  18. Frame rate                               : 23.976 (24000/1001) FPS
  19. Color space                              : YUV
  20. Chroma subsampling                       : 4:2:0
  21. Bit depth                                : 8 bits
  22. Scan type                                : Progressive
  23. Bits/(Pixel*Frame)                       : 0.645
  24. Stream size                              : 19.3 GiB (75%)
  25. Title                                    : The.Secret.Life.of.Pets.2.2019.1080p.BluRay.REMUX.AVC.DTS-HD.MA.TrueHD.7.1.Atmos-FGT
  26. Language                                 : English
  27. Default                                  : No
  28. Forced                                   : No
  29. Audio #1
  30. ID                                       : 2
  31. Format                                   : MLP FBA 16-ch
  32. Format/Info                              : Meridian Lossless Packing FBA with 16-channel presentation
  33. Commercial name                          : Dolby TrueHD with Dolby Atmos
  34. Codec ID                                 : A_TRUEHD
  35. Duration                                 : 1 h 26 min
  36. Bit rate mode                            : Variable
  37. Bit rate                                 : 3 318 kb/s
  38. Maximum bit rate                         : 4 644 kb/s
  39. Channel(s)                               : 8 channels
  40. Channel layout                           : L R C LFE Ls Rs Lb Rb
  41. Sampling rate                            : 48.0 kHz
  42. Frame rate                               : 1 200.000 FPS (40 SPF)
  43. Compression mode                         : Lossless
  44. Stream size                              : 1.99 GiB (8%)
  45. Title                                    : The.Secret.Life.of.Pets.2.2019.1080p.BluRay.REMUX.AVC.DTS-HD.MA.TrueHD.7.1.Atmos-FGT
  46. Language                                 : English
  47. Default                                  : Yes
  48. Forced                                   : No
  49. Number of dynamic objects                : 11
  50. Bed channel count                        : 1 channel
  51. Bed channel configuration                : LFE
  52. Audio #2
  53. ID                                       : 3
  54. Format                                   : DTS XLL
  55. Format/Info                              : Digital Theater Systems
  56. Commercial name                          : DTS-HD Master Audio
  57. Codec ID                                 : A_DTS
  58. Duration                                 : 1 h 26 min
  59. Bit rate mode                            : Variable
  60. Bit rate                                 : 4 107 kb/s
  61. Channel(s)                               : 8 channels
  62. Channel layout                           : C L R LFE Lb Rb Lss Rss
  63. Sampling rate                            : 48.0 kHz
  64. Frame rate                               : 93.750 FPS (512 SPF)
  65. Bit depth                                : 24 bits
  66. Compression mode                         : Lossless
  67. Stream size                              : 2.47 GiB (10%)
  68. Title                                    : The.Secret.Life.of.Pets.2.2019.1080p.BluRay.REMUX.AVC.DTS-HD.MA.TrueHD.7.1.Atmos-FGT
  69. Language                                 : English
  70. Default                                  : No
  71. Forced                                   : No
  72. Audio #3
  73. ID                                       : 4
  74. Format                                   : AC-3
  75. Format/Info                              : Audio Coding 3
  76. Commercial name                          : Dolby Digital
  77. Codec ID                                 : A_AC3
  78. Duration                                 : 1 h 26 min
  79. Bit rate mode                            : Constant
  80. Bit rate                                 : 448 kb/s
  81. Channel(s)                               : 6 channels
  82. Channel layout                           : L R C LFE Ls Rs
  83. Sampling rate                            : 48.0 kHz
  84. Frame rate                               : 31.250 FPS (1536 SPF)
  85. Bit depth                                : 16 bits
  86. Compression mode                         : Lossy
  87. Stream size                              : 276 MiB (1%)
  88. Title                                    : The.Secret.Life.of.Pets.2.2019.1080p.BluRay.REMUX.AVC.DTS-HD.MA.TrueHD.7.1.Atmos-FGT
  89. Language                                 : English
  90. Service kind                             : Complete Main
  91. Default                                  : No
  92. Forced                                   : No
  93. Audio #4
  94. ID                                       : 5
  95. Format                                   : E-AC-3
  96. Format/Info                              : Enhanced AC-3
  97. Commercial name                          : Dolby Digital Plus
  98. Format profile                           : Blu-ray Disc
  99. Codec ID                                 : A_EAC3
  100. Duration                                 : 1 h 26 min
  101. Bit rate mode                            : Constant
  102. Bit rate                                 : 768 kb/s
  103. Channel(s)                               : 8 channels
  104. Channel layout                           : L R C LFE Ls Rs Lb Rb
  105. Sampling rate                            : 48.0 kHz
  106. Frame rate                               : 31.250 FPS (1536 SPF)
  107. Compression mode                         : Lossy
  108. Stream size                              : 473 MiB (2%)
  109. Title                                    : The.Secret.Life.of.Pets.2.2019.1080p.BluRay.REMUX.AVC.DTS-HD.MA.TrueHD.7.1.Atmos-FGT
  110. Language                                 : Spanish
  111. Service kind                             : Complete Main
  112. Default                                  : No
  113. Forced                                   : No
  114. Audio #5
  115. ID                                       : 6
  116. Format                                   : AC-3
  117. Format/Info                              : Audio Coding 3
  118. Commercial name                          : Dolby Digital
  119. Codec ID                                 : A_AC3
  120. Duration                                 : 1 h 26 min
  121. Bit rate mode                            : Constant
  122. Bit rate                                 : 448 kb/s
  123. Channel(s)                               : 6 channels
  124. Channel layout                           : L R C LFE Ls Rs
  125. Sampling rate                            : 48.0 kHz
  126. Frame rate                               : 31.250 FPS (1536 SPF)
  127. Bit depth                                : 16 bits
  128. Compression mode                         : Lossy
  129. Stream size                              : 276 MiB (1%)
  130. Title                                    : The.Secret.Life.of.Pets.2.2019.1080p.BluRay.REMUX.AVC.DTS-HD.MA.TrueHD.7.1.Atmos-FGT
  131. Language                                 : Spanish
  132. Service kind                             : Complete Main
  133. Default                                  : No
  134. Forced                                   : No
  135. Audio #6
  136. ID                                       : 7
  137. Format                                   : E-AC-3
  138. Format/Info                              : Enhanced AC-3
  139. Commercial name                          : Dolby Digital Plus
  140. Format profile                           : Blu-ray Disc
  141. Codec ID                                 : A_EAC3
  142. Duration                                 : 1 h 26 min
  143. Bit rate mode                            : Constant
  144. Bit rate                                 : 768 kb/s
  145. Channel(s)                               : 8 channels
  146. Channel layout                           : L R C LFE Ls Rs Lb Rb
  147. Sampling rate                            : 48.0 kHz
  148. Frame rate                               : 31.250 FPS (1536 SPF)
  149. Compression mode                         : Lossy
  150. Stream size                              : 473 MiB (2%)
  151. Title                                    : The.Secret.Life.of.Pets.2.2019.1080p.BluRay.REMUX.AVC.DTS-HD.MA.TrueHD.7.1.Atmos-FGT
  152. Language                                 : French
  153. Service kind                             : Complete Main
  154. Default                                  : No
  155. Forced                                   : No
  156. Audio #7
  157. ID                                       : 8
  158. Format                                   : AC-3
  159. Format/Info                              : Audio Coding 3
  160. Commercial name                          : Dolby Digital
  161. Codec ID                                 : A_AC3
  162. Duration                                 : 1 h 26 min
  163. Bit rate mode                            : Constant
  164. Bit rate                                 : 448 kb/s
  165. Channel(s)                               : 6 channels
  166. Channel layout                           : L R C LFE Ls Rs
  167. Sampling rate                            : 48.0 kHz
  168. Frame rate                               : 31.250 FPS (1536 SPF)
  169. Bit depth                                : 16 bits
  170. Compression mode                         : Lossy
  171. Stream size                              : 276 MiB (1%)
  172. Title                                    : The.Secret.Life.of.Pets.2.2019.1080p.BluRay.REMUX.AVC.DTS-HD.MA.TrueHD.7.1.Atmos-FGT
  173. Language                                 : French
  174. Service kind                             : Complete Main
  175. Default                                  : No
  176. Forced                                   : No
  177. Audio #8
  178. ID                                       : 9
  179. Format                                   : AC-3
  180. Format/Info                              : Audio Coding 3
  181. Commercial name                          : Dolby Digital
  182. Codec ID                                 : A_AC3
  183. Duration                                 : 1 h 26 min
  184. Bit rate mode                            : Constant
  185. Bit rate                                 : 192 kb/s
  186. Channel(s)                               : 2 channels
  187. Channel layout                           : L R
  188. Sampling rate                            : 48.0 kHz
  189. Frame rate                               : 31.250 FPS (1536 SPF)
  190. Bit depth                                : 16 bits
  191. Compression mode                         : Lossy
  192. Stream size                              : 118 MiB (0%)
  193. Title                                    : The.Secret.Life.of.Pets.2.2019.1080p.BluRay.REMUX.AVC.DTS-HD.MA.TrueHD.7.1.Atmos-FGT
  194. Language                                 : English
  195. Service kind                             : Complete Main
  196. Default                                  : No
  197. Forced                                   : No
  198. Text #1
  199. ID                                       : 10
  200. Format                                   : UTF-8
  201. Codec ID                                 : S_TEXT/UTF8
  202. Codec ID/Info                            : UTF-8 Plain Text
  203. Duration                                 : 1 h 25 min
  204. Bit rate                                 : 47 b/s
  205. Count of elements                        : 1229
  206. Stream size                              : 29.9 KiB (0%)
  207. Title                                    : English-SRT
  208. Language                                 : English
  209. Default                                  : Yes
  210. Forced                                   : No
  211. Text #2
  212. ID                                       : 11
  213. Format                                   : UTF-8
  214. Codec ID                                 : S_TEXT/UTF8
  215. Codec ID/Info                            : UTF-8 Plain Text
  216. Duration                                 : 1 h 25 min
  217. Bit rate                                 : 77 b/s
  218. Count of elements                        : 1924
  219. Stream size                              : 48.5 KiB (0%)
  220. Title                                    : English-SDH-SRT
  221. Language                                 : English
  222. Default                                  : No
  223. Forced                                   : No
  224. Text #3
  225. ID                                       : 12
  226. Format                                   : PGS
  227. Muxing mode                              : zlib
  228. Codec ID                                 : S_HDMV/PGS
  229. Codec ID/Info                            : Picture based subtitle format used on BDs/HD-DVDs
  230. Duration                                 : 1 h 25 min
  231. Bit rate                                 : 46.3 kb/s
  232. Count of elements                        : 3286
  233. Stream size                              : 28.3 MiB (0%)
  234. Title                                    : English-PGS
  235. Language                                 : English
  236. Default                                  : No
  237. Forced                                   : No
  238. Text #4
  239. ID                                       : 13
  240. Format                                   : PGS
  241. Muxing mode                              : zlib
  242. Codec ID                                 : S_HDMV/PGS
  243. Codec ID/Info                            : Picture based subtitle format used on BDs/HD-DVDs
  244. Duration                                 : 1 h 25 min
  245. Bit rate                                 : 27.3 kb/s
  246. Count of elements                        : 2178
  247. Stream size                              : 16.7 MiB (0%)
  248. Title                                    : Spansh-PGS
  249. Language                                 : Spanish
  250. Default                                  : No
  251. Forced                                   : No
  252. Text #5
  253. ID                                       : 14
  254. Format                                   : PGS
  255. Muxing mode                              : zlib
  256. Codec ID                                 : S_HDMV/PGS
  257. Codec ID/Info                            : Picture based subtitle format used on BDs/HD-DVDs
  258. Duration                                 : 1 h 25 min
  259. Bit rate                                 : 27.7 kb/s
  260. Count of elements                        : 2002
  261. Stream size                              : 16.9 MiB (0%)
  262. Title                                    : French-PGS
  263. Language                                 : French
  264. Default                                  : No
  265. Forced                                   : No
  266. Text #6
  267. ID                                       : 15
  268. Format                                   : PGS
  269. Muxing mode                              : zlib
  270. Codec ID                                 : S_HDMV/PGS
  271. Codec ID/Info                            : Picture based subtitle format used on BDs/HD-DVDs
  272. Duration                                 : 1 h 20 min
  273. Bit rate                                 : 182 b/s
  274. Count of elements                        : 10
  275. Stream size                              : 107 KiB (0%)
  276. Title                                    : Spanish-FORCED-PGS
  277. Language                                 : Spanish
  278. Default                                  : No
  279. Forced                                   : No
  280. Text #7
  281. ID                                       : 16
  282. Format                                   : PGS
  283. Muxing mode                              : zlib
  284. Codec ID                                 : S_HDMV/PGS
  285. Codec ID/Info                            : Picture based subtitle format used on BDs/HD-DVDs
  286. Duration                                 : 1 h 13 min
  287. Bit rate                                 : 944 b/s
  288. Count of elements                        : 56
  289. Stream size                              : 512 KiB (0%)
  290. Title                                    : French-FORCED-PGS
  291. Language                                 : French
  292. Default                                  : No
  293. Forced                                   : No
  294. Menu
  295. 00:00:00.000                             : en:Chapter 01
  296. 00:05:34.542                             : en:Chapter 02
  297. 00:10:07.815                             : en:Chapter 03
  298. 00:13:26.305                             : en:Chapter 04
  299. 00:16:39.790                             : en:Chapter 05
  300. 00:19:56.945                             : en:Chapter 06
  301. 00:24:10.073                             : en:Chapter 07
  302. 00:28:15.735                             : en:Chapter 08
  303. 00:30:54.269                             : en:Chapter 09
  304. 00:35:15.113                             : en:Chapter 10
  305. 00:39:55.976                             : en:Chapter 11
  306. 00:45:47.327                             : en:Chapter 12
  307. 00:49:51.822                             : en:Chapter 13
  308. 00:56:54.994                             : en:Chapter 14
  309. 00:58:35.220                             : en:Chapter 15
  310. 01:02:48.931                             : en:Chapter 16
  311. 01:07:16.615                             : en:Chapter 17
  312. 01:12:48.822                             : en:Chapter 18
  313. 01:15:21.808                             : en:Chapter 19
  314. 01:18:10.018                             : en:Chapter 20
复制代码






                                       
                                       

                                       
                                       
                                       




爱宠大机密2/Pet Pet当家2 The.Secret.Life.of.Pets.2.2019.1080p.BluRay.REMUX.AVC.DTS-HD.MA.TrueHD.7.1.Atmos-FGT 25.66GB

The.Secret.Life.of.Pets.2.2019.1080p.BluRay.REMUX.AVC.DTS-HD.MA.TrueHD.7.1.Atmos.torrent

64.75 KB, 下载次数: 6, 下载积分: 蓝光币 -2

回复

使用道具 举报

懒得打字嘛,点击右侧快捷回复 【右侧内容,后台自定义】
您需要登录后才可以回帖 登录 | 立即加入

本版积分规则

Archiver| |网站地图

Copyright © 2024 Comsenz Inc. Powered by 蓝光电影网

本站内容由用户自主分享和转载自互联网,转载目的在于传递更多信息,并不代表本网赞同其观点和对其真实性负责。

如有侵权、违反国家法律政策行为,请联系我们,我们会第一时间及时清除和处理!

举报反馈邮箱:4k1080.com@gmail.com

快速回复 返回顶部 返回列表