找回密码

查看: 2690|回复: 2

[喜剧] 偷心女盗 The.Hustle.2019.1080p.BluRay.REMUX.AVC.DTS-HD.MA.7.1-FGT 26.34GB

[复制链接]
蓝光币
2048
发表于 2019-8-19 03:33:43 | 显示全部楼层 |阅读模式


◎译  名 偷心女盗 / Dirty Rotten Scoundrels / Nasty Women / 圆美大盗(港) / 坏坏女郎 / 欺骗女神(台)
◎片  名 The Hustle
◎年  代 2019
◎产  地 美国
◎类  别 笑剧
◎语  言 英语
◎上映日期 2019-05-10(美国)
◎IMDb评分  5.4/10 from 9025 users
◎IMDb链接  http://www.imdb.com/title/tt1298644
◎豆瓣评分 6.0/10 from 1006 users
◎豆瓣链接 https://movie.douban.com/subject/3230155/
◎片  长 93分钟
◎导  演 克里斯·艾迪生 Chris Addison
◎编  剧 斯坦利·沙皮罗 Stanley Shapiro / 保罗·海宁 Paul Henning / 戴尔·劳纳尔 Dale Launer / 雅克·舍费尔 Jac Schaeffer
◎主  演 安妮·海瑟薇 Anne Hathaway
       蕾蓓尔·威尔森 Rebel Wilson
       蒂姆·布雷克·尼尔森 Tim Blake Nelson
       艾利克斯·夏普 Alex Sharp
       罗非洛·迪格托勒 Raffaello Degruttola
       迪诺·布加迪 Deano Bugatti
       布鲁诺·塞维利亚 Bruno Sevilla
       克里斯多夫·德·舒瓦西 Christophe de Choisy
       菲利普·德斯穆尔斯 Philip Desmeules
       库姆德·潘特 Kumud Pant
       塞缪尔·加斯帕德 Samuel Gaspard

◎标  签 笑剧 | 美国 | 2019 | 犯罪 | 搞笑 | 女性 | 翻拍 | 把妹
◎简  介  
  安妮·海瑟薇将加盟蕾蓓尔·威尔森新片《坏坏女郎》(Nasty Women,暂译)。影片翻拍自1988年弗兰克·奥兹执导,史蒂夫·马丁、迈克尔·凯恩主演的《骗徒臭事多》。片中安妮·海瑟薇、蕾蓓尔·威尔森化身女版骗徒,固然此次她们的方针将是鲜嫩多汁的“单身男人”。
  1. Video
  2. ID                                       : 1
  3. Format                                   : AVC
  4. Format/Info                              : Advanced Video Codec
  5. Format profile                           : [email protected]
  6. Format settings                          : CABAC / 4 Ref Frames
  7. Format settings, CABAC                   : Yes
  8. Format settings, Reference frames        : 4 frames
  9. Codec ID                                 : V_MPEG4/ISO/AVC
  10. Duration                                 : 1 h 33 min
  11. Bit rate mode                            : Variable
  12. Bit rate                                 : 32.2 Mb/s
  13. Maximum bit rate                         : 35.9 Mb/s
  14. Width                                    : 1 920 pixels
  15. Height                                   : 1 080 pixels
  16. Display aspect ratio                     : 16:9
  17. Frame rate mode                          : Constant
  18. Frame rate                               : 23.976 (24000/1001) FPS
  19. Color space                              : YUV
  20. Chroma subsampling                       : 4:2:0
  21. Bit depth                                : 8 bits
  22. Scan type                                : Progressive
  23. Bits/(Pixel*Frame)                       : 0.648
  24. Stream size                              : 21.2 GiB (80%)
  25. Title                                    : The.Hustle.2019.1080p.BluRay.REMUX.AVC.DTS-HD.MA.7.1-FGT
  26. Language                                 : English
  27. Default                                  : No
  28. Forced                                   : No
  29. Audio #1
  30. ID                                       : 2
  31. Format                                   : DTS XLL
  32. Format/Info                              : Digital Theater Systems
  33. Commercial name                          : DTS-HD Master Audio
  34. Codec ID                                 : A_DTS
  35. Duration                                 : 1 h 33 min
  36. Bit rate mode                            : Variable
  37. Bit rate                                 : 4 644 kb/s
  38. Channel(s)                               : 8 channels
  39. Channel layout                           : C L R LFE Lb Rb Lss Rss
  40. Sampling rate                            : 48.0 kHz
  41. Frame rate                               : 93.750 FPS (512 SPF)
  42. Bit depth                                : 24 bits
  43. Compression mode                         : Lossless
  44. Stream size                              : 3.05 GiB (12%)
  45. Title                                    : The.Hustle.2019.1080p.BluRay.REMUX.AVC.DTS-HD.MA.7.1-FGT
  46. Language                                 : English
  47. Default                                  : Yes
  48. Forced                                   : No
  49. Audio #2
  50. ID                                       : 3
  51. Format                                   : DTS
  52. Format/Info                              : Digital Theater Systems
  53. Codec ID                                 : A_DTS
  54. Duration                                 : 1 h 33 min
  55. Bit rate mode                            : Constant
  56. Bit rate                                 : 768 kb/s
  57. Channel(s)                               : 6 channels
  58. Channel layout                           : C L R Ls Rs LFE
  59. Sampling rate                            : 48.0 kHz
  60. Frame rate                               : 93.750 FPS (512 SPF)
  61. Bit depth                                : 24 bits
  62. Compression mode                         : Lossy
  63. Stream size                              : 516 MiB (2%)
  64. Title                                    : The.Hustle.2019.1080p.BluRay.REMUX.AVC.DTS-HD.MA.7.1-FGT
  65. Language                                 : Spanish
  66. Default                                  : No
  67. Forced                                   : No
  68. Audio #3
  69. ID                                       : 4
  70. Format                                   : DTS XBR
  71. Format/Info                              : Digital Theater Systems
  72. Commercial name                          : DTS-HD High Resolution Audio
  73. Codec ID                                 : A_DTS
  74. Duration                                 : 1 h 33 min
  75. Bit rate mode                            : Constant
  76. Bit rate                                 : 2 046 kb/s
  77. Channel(s)                               : 8 channels
  78. Channel layout                           : C L R LFE Lb Rb Lss Rss
  79. Sampling rate                            : 48.0 kHz
  80. Frame rate                               : 93.750 FPS (512 SPF)
  81. Bit depth                                : 24 bits
  82. Compression mode                         : Lossy
  83. Stream size                              : 1.34 GiB (5%)
  84. Title                                    : The.Hustle.2019.1080p.BluRay.REMUX.AVC.DTS-HD.MA.7.1-FGT
  85. Language                                 : French
  86. Default                                  : No
  87. Forced                                   : No
  88. Audio #4
  89. ID                                       : 5
  90. Format                                   : AC-3
  91. Format/Info                              : Audio Coding 3
  92. Commercial name                          : Dolby Digital
  93. Codec ID                                 : A_AC3
  94. Duration                                 : 1 h 33 min
  95. Bit rate mode                            : Constant
  96. Bit rate                                 : 192 kb/s
  97. Channel(s)                               : 2 channels
  98. Channel layout                           : L R
  99. Sampling rate                            : 48.0 kHz
  100. Frame rate                               : 31.250 FPS (1536 SPF)
  101. Bit depth                                : 16 bits
  102. Compression mode                         : Lossy
  103. Stream size                              : 129 MiB (0%)
  104. Title                                    : The.Hustle.2019.1080p.BluRay.REMUX.AVC.DTS-HD.MA.7.1-FGT
  105. Language                                 : English
  106. Service kind                             : Complete Main
  107. Default                                  : No
  108. Forced                                   : No
  109. Audio #5
  110. ID                                       : 6
  111. Format                                   : AC-3
  112. Format/Info                              : Audio Coding 3
  113. Commercial name                          : Dolby Digital
  114. Codec ID                                 : A_AC3
  115. Duration                                 : 1 h 33 min
  116. Bit rate mode                            : Constant
  117. Bit rate                                 : 192 kb/s
  118. Channel(s)                               : 2 channels
  119. Channel layout                           : L R
  120. Sampling rate                            : 48.0 kHz
  121. Frame rate                               : 31.250 FPS (1536 SPF)
  122. Bit depth                                : 16 bits
  123. Compression mode                         : Lossy
  124. Stream size                              : 129 MiB (0%)
  125. Title                                    : The.Hustle.2019.1080p.BluRay.REMUX.AVC.DTS-HD.MA.7.1-FGT
  126. Language                                 : English
  127. Service kind                             : Complete Main
  128. Default                                  : No
  129. Forced                                   : No
  130. Text #1
  131. ID                                       : 7
  132. Format                                   : UTF-8
  133. Codec ID                                 : S_TEXT/UTF8
  134. Codec ID/Info                            : UTF-8 Plain Text
  135. Duration                                 : 1 h 32 min
  136. Bit rate                                 : 72 b/s
  137. Count of elements                        : 1781
  138. Stream size                              : 49.4 KiB (0%)
  139. Title                                    : English-SRT
  140. Language                                 : English
  141. Default                                  : Yes
  142. Forced                                   : No
  143. Text #2
  144. ID                                       : 8
  145. Format                                   : PGS
  146. Muxing mode                              : zlib
  147. Codec ID                                 : S_HDMV/PGS
  148. Codec ID/Info                            : Picture based subtitle format used on BDs/HD-DVDs
  149. Duration                                 : 1 h 33 min
  150. Bit rate                                 : 51.3 kb/s
  151. Count of elements                        : 3512
  152. Stream size                              : 34.2 MiB (0%)
  153. Title                                    : English-PGS
  154. Language                                 : English
  155. Default                                  : No
  156. Forced                                   : No
  157. Text #3
  158. ID                                       : 9
  159. Format                                   : PGS
  160. Muxing mode                              : zlib
  161. Codec ID                                 : S_HDMV/PGS
  162. Codec ID/Info                            : Picture based subtitle format used on BDs/HD-DVDs
  163. Duration                                 : 1 h 33 min
  164. Bit rate                                 : 44.9 kb/s
  165. Count of elements                        : 3308
  166. Stream size                              : 29.9 MiB (0%)
  167. Title                                    : Spanish-PGS
  168. Language                                 : Spanish
  169. Default                                  : No
  170. Forced                                   : No
  171. Text #4
  172. ID                                       : 10
  173. Format                                   : PGS
  174. Muxing mode                              : zlib
  175. Codec ID                                 : S_HDMV/PGS
  176. Codec ID/Info                            : Picture based subtitle format used on BDs/HD-DVDs
  177. Duration                                 : 1 h 33 min
  178. Bit rate                                 : 42.0 kb/s
  179. Count of elements                        : 3156
  180. Stream size                              : 28.0 MiB (0%)
  181. Title                                    : French-PGS
  182. Language                                 : French
  183. Default                                  : No
  184. Forced                                   : No
  185. Text #5
  186. ID                                       : 11
  187. Format                                   : PGS
  188. Muxing mode                              : zlib
  189. Codec ID                                 : S_HDMV/PGS
  190. Codec ID/Info                            : Picture based subtitle format used on BDs/HD-DVDs
  191. Duration                                 : 1 h 33 min
  192. Bit rate                                 : 576 b/s
  193. Count of elements                        : 48
  194. Stream size                              : 393 KiB (0%)
  195. Title                                    : Spanish-PGS
  196. Language                                 : Spanish
  197. Default                                  : No
  198. Forced                                   : No
  199. Text #6
  200. ID                                       : 12
  201. Format                                   : PGS
  202. Muxing mode                              : zlib
  203. Codec ID                                 : S_HDMV/PGS
  204. Codec ID/Info                            : Picture based subtitle format used on BDs/HD-DVDs
  205. Duration                                 : 1 h 33 min
  206. Bit rate                                 : 432 b/s
  207. Count of elements                        : 38
  208. Stream size                              : 295 KiB (0%)
  209. Title                                    : French-FORCED-PGS
  210. Language                                 : French
  211. Default                                  : No
  212. Forced                                   : No
  213. Menu
  214. 00:00:00.000                             : en:Chapter 01
  215. 00:05:58.858                             : en:Chapter 02
  216. 00:09:56.053                             : en:Chapter 03
  217. 00:15:29.553                             : en:Chapter 04
  218. 00:21:12.646                             : en:Chapter 05
  219. 00:25:19.851                             : en:Chapter 06
  220. 00:32:26.903                             : en:Chapter 07
  221. 00:37:56.607                             : en:Chapter 08
  222. 00:41:51.300                             : en:Chapter 09
  223. 00:44:55.818                             : en:Chapter 10
  224. 00:49:56.326                             : en:Chapter 11
  225. 00:54:34.896                             : en:Chapter 12
  226. 00:59:16.261                             : en:Chapter 13
  227. 01:02:15.898                             : en:Chapter 14
  228. 01:06:47.586                             : en:Chapter 15
  229. 01:09:58.152                             : en:Chapter 16
  230. 01:15:16.178                             : en:Chapter 17
  231. 01:21:37.058                             : en:Chapter 18
  232. 01:28:58.833                             : en:Chapter 19
  233. 01:32:27.041                             : en:Chapter 20
复制代码






                                       
                                       

                                       
                                       
                                       




回复

使用道具 举报

蓝光币
55
发表于 2021-10-21 16:05:47 | 显示全部楼层
我是为了看这个胖女人才来下载的!
回复

使用道具 举报

蓝光币
55
发表于 2021-10-21 16:05:56 | 显示全部楼层
我是为了看这个胖女人才来下载的!
回复

使用道具 举报

懒得打字嘛,点击右侧快捷回复 【右侧内容,后台自定义】
您需要登录后才可以回帖 登录 | 立即加入

本版积分规则

Archiver| |网站地图

Copyright © 2024 Comsenz Inc. Powered by 蓝光电影网

本站内容由用户自主分享和转载自互联网,转载目的在于传递更多信息,并不代表本网赞同其观点和对其真实性负责。

如有侵权、违反国家法律政策行为,请联系我们,我们会第一时间及时清除和处理!

举报反馈邮箱:4k1080.com@gmail.com

快速回复 返回顶部 返回列表