找回密码

查看: 2189|回复: 0

[剧情] 恶人传 The.Gangster.the.Cop.the.Devil.2019.KOREAN.1080p.BluRay.REMUX.AVC.DTS-HD.MA.5.1-FGT 16.77GB

[复制链接]
蓝光币
2039
发表于 2019-10-7 22:44:32 | 显示全部楼层 |阅读模式


◎译  名 恶人传 / The Gangster, The Cop, The Devil / 恶霸?魔警?杀人狂(港) / 极恶对决(台)
◎片  名 ???
◎年  代 2019
◎产  地 韩国
◎类  别 剧情 / 行动 / 犯罪
◎语  言 韩语
◎上映日期 2019-05-15(韩国)
◎IMDb评分  6.9/10 from 1549 users
◎IMDb链接  http://www.imdb.com/title/tt10208198
◎豆瓣评分 7.7/10 from 122614 users
◎豆瓣链接 https://movie.douban.com/subject/30211551/
◎片  长 109分钟
◎导  演 李元泰 Won-tae Lee
◎编  剧 李元泰 Won-tae Lee
◎主  演 马东锡 Tong-Seok Ma
       金武烈 Moo-yeol Kim
       金成圭 Seong-gyoo Kim
       刘承睦 Yoo Seung-Mok
       崔民哲 Min-cheol Choi
       金胤成 Kim Yoon-seong
       许栋元 Heo Dong-won
       吴熙俊 Hee-joon Oh
       杨志洙 Ji-soo Yang
       金桀 Kim Kyoul
       李恩泉 Eun-saem Lee
       刘在明 Jae-myung Yoo

◎标  签 韩国 | 犯罪 | 暴力 | 行动 | 警匪 | 人性 | 悬疑 | 2019
◎简  介  
  罪犯头子张东洙(Don Lee)被一位奥秘莫测的连环杀手暴力攻击以后幸存,与当地警探郑泰硕(Kim Moo Yul)构成了一种奇妙的同伴关系,联手捕捉被称为“K”的凌虐狂杀手”。
  1. Video
  2. ID                                       : 1
  3. Format                                   : AVC
  4. Format/Info                              : Advanced Video Codec
  5. Format profile                           : [email protected]
  6. Format settings                          : CABAC / 4 Ref Frames
  7. Format settings, CABAC                   : Yes
  8. Format settings, Reference frames        : 4 frames
  9. Codec ID                                 : V_MPEG4/ISO/AVC
  10. Duration                                 : 1 h 49 min
  11. Bit rate mode                            : Variable
  12. Bit rate                                 : 19.2 Mb/s
  13. Maximum bit rate                         : 20.0 Mb/s
  14. Width                                    : 1 920 pixels
  15. Height                                   : 1 080 pixels
  16. Display aspect ratio                     : 16:9
  17. Frame rate mode                          : Constant
  18. Frame rate                               : 24.000 FPS
  19. Color space                              : YUV
  20. Chroma subsampling                       : 4:2:0
  21. Bit depth                                : 8 bits
  22. Scan type                                : Progressive
  23. Bits/(Pixel*Frame)                       : 0.385
  24. Stream size                              : 14.7 GiB (88%)
  25. Title                                    : The.Gangster.the.Cop.the.Devil.2019.KOREAN.1080p.BluRay.REMUX.AVC.DTS-HD.MA.5.1-FGT
  26. Language                                 : English
  27. Default                                  : No
  28. Forced                                   : No
  29. Audio #1
  30. ID                                       : 2
  31. Format                                   : DTS XLL
  32. Format/Info                              : Digital Theater Systems
  33. Commercial name                          : DTS-HD Master Audio
  34. Codec ID                                 : A_DTS
  35. Duration                                 : 1 h 49 min
  36. Bit rate mode                            : Variable
  37. Bit rate                                 : 2 260 kb/s
  38. Channel(s)                               : 6 channels
  39. Channel layout                           : C L R Ls Rs LFE
  40. Sampling rate                            : 48.0 kHz
  41. Frame rate                               : 93.750 FPS (512 SPF)
  42. Bit depth                                : 16 bits
  43. Compression mode                         : Lossless
  44. Stream size                              : 1.74 GiB (10%)
  45. Title                                    : The.Gangster.the.Cop.the.Devil.2019.KOREAN.1080p.BluRay.REMUX.AVC.DTS-HD.MA.5.1-FGT
  46. Language                                 : Korean
  47. Default                                  : Yes
  48. Forced                                   : No
  49. Audio #2
  50. ID                                       : 3
  51. Format                                   : AC-3
  52. Format/Info                              : Audio Coding 3
  53. Commercial name                          : Dolby Digital
  54. Codec ID                                 : A_AC3
  55. Duration                                 : 1 h 49 min
  56. Bit rate mode                            : Constant
  57. Bit rate                                 : 384 kb/s
  58. Channel(s)                               : 2 channels
  59. Channel layout                           : L R
  60. Sampling rate                            : 48.0 kHz
  61. Frame rate                               : 31.250 FPS (1536 SPF)
  62. Bit depth                                : 16 bits
  63. Compression mode                         : Lossy
  64. Stream size                              : 302 MiB (2%)
  65. Title                                    : The.Gangster.the.Cop.the.Devil.2019.KOREAN.1080p.BluRay.REMUX.AVC.DTS-HD.MA.5.1-FGT
  66. Language                                 : Korean
  67. Service kind                             : Complete Main
  68. Default                                  : No
  69. Forced                                   : No
  70. Text #1
  71. ID                                       : 4
  72. Format                                   : UTF-8
  73. Codec ID                                 : S_TEXT/UTF8
  74. Codec ID/Info                            : UTF-8 Plain Text
  75. Duration                                 : 1 h 44 min
  76. Bit rate                                 : 52 b/s
  77. Count of elements                        : 1323
  78. Stream size                              : 40.4 KiB (0%)
  79. Title                                    : English-SRT
  80. Language                                 : English
  81. Default                                  : Yes
  82. Forced                                   : No
  83. Text #2
  84. ID                                       : 5
  85. Format                                   : PGS
  86. Muxing mode                              : zlib
  87. Codec ID                                 : S_HDMV/PGS
  88. Codec ID/Info                            : Picture based subtitle format used on BDs/HD-DVDs
  89. Duration                                 : 1 h 44 min
  90. Bit rate                                 : 34.1 kb/s
  91. Count of elements                        : 2652
  92. Stream size                              : 25.6 MiB (0%)
  93. Title                                    : English-PGS
  94. Language                                 : English
  95. Default                                  : No
  96. Forced                                   : No
  97. Menu
  98. 00:00:00.000                             : en:Chapter 01
  99. 00:09:32.875                             : en:Chapter 02
  100. 00:18:25.750                             : en:Chapter 03
  101. 00:26:37.458                             : en:Chapter 04
  102. 00:37:36.625                             : en:Chapter 05
  103. 00:47:04.458                             : en:Chapter 06
  104. 01:01:17.083                             : en:Chapter 07
  105. 01:11:17.125                             : en:Chapter 08
  106. 01:20:57.583                             : en:Chapter 09
  107. 01:32:52.833                             : en:Chapter 10
  108. 01:45:46.500                             : en:Chapter 11
  109. 01:49:53.916                             : en:Chapter 12
复制代码






                                       
                                       

                                       
                                       
                                       




恶人传 The.Gangster.the.Cop.the.Devil.2019.KOREAN.1080p.BluRay.REMUX.AVC.DTS-HD.MA.5.1-FGT 16.77GB

The.Gangster.the.Cop.the.Devil.2019.KOREAN.1080p.BluRay.REMUX.AVC.DTS-HD.MA.5.1-.torrent

84.45 KB, 下载次数: 192, 下载积分: 蓝光币 -2

回复

使用道具 举报

懒得打字嘛,点击右侧快捷回复 【右侧内容,后台自定义】
您需要登录后才可以回帖 登录 | 立即加入

本版积分规则

Archiver| |网站地图

Copyright © 2024 Comsenz Inc. Powered by 蓝光电影网

本站内容由用户自主分享和转载自互联网,转载目的在于传递更多信息,并不代表本网赞同其观点和对其真实性负责。

如有侵权、违反国家法律政策行为,请联系我们,我们会第一时间及时清除和处理!

举报反馈邮箱:4k1080.com@gmail.com

快速回复 返回顶部 返回列表