找回密码

查看: 1384|回复: 0

[其他] 蛛丝马迹/全面追缉令 Along.Came.a.Spider.2001.1080p.BluRay.X264-AMIABLE 7.65GB

[复制链接]
蓝光币
2048
发表于 2020-9-19 19:57:32 | 显示全部楼层 |阅读模式


◎译  名 千丝万缕/周全追缉令(台)/血网追凶(港)
◎片  名 Along Came a Spider
◎年  代 2001
◎产  地 德国,美国,加拿大
◎类  别 悬疑 / 惊悚 / 犯罪
◎语  言 英语,俄语
◎上映日期 2001-04-02
◎IMDb评分  6.4/10 from 75160 users
◎IMDb链接  https://www.imdb.com/title/tt0164334/
◎豆瓣评分 6.8/10 from 3823 users
◎豆瓣链接 https://movie.douban.com/subject/1305074/
◎片  长 104 分钟
◎导  演 李·塔玛霍瑞 Lee Tamahori
◎编  剧 詹姆斯·帕特森  James Patterson
◎主  演 摩根·弗里曼 Morgan Freeman
       莫妮卡·波特 Monica Potter
       迈克尔·维克特 Michael Wincott
       迪伦·贝克 Dylan Baker
       米卡·波瑞姆 Mika Boorem
       安东·叶利钦 Anton Yelchin
       金·霍桑 Kim Hawthorne
       杰伊·桑德斯 Jay O. Sanders
       比利·伯克 Billy Burke
       迈克尔·莫里亚蒂 Michael Moriarty
       佩内洛普·安·米勒 Penelope Ann Miller
       安娜·玛利亚·霍斯福德 Anna Maria Horsford
       克里斯托弗·谢尔 Christopher Shyer
       乔纳森·沃克 Jonathan Walker
       Kyley Statham
       坎贝尔·莱恩 Campbell Lane
       查尔斯·安德烈 Charles Andre
       拉维尔·伊斯亚诺夫 Ravil Isyanov
       萨曼莎·费里斯 Samantha Ferris
       Darryl Dillard
       Raoul Ganeev
       Ocean Hellman
       Aaron Joseph
◎标  签 悬疑 | 犯罪 | 美国 | 摩根·弗里曼 | MorganFreeman | 美国电影 | 惊悚 | 2001
◎简  介


  亚历克斯(摩根·弗里曼 Morgan Freeman 饰)是一位资历丰富的警探,这一次,他被派遣负责国会议员女儿被绑架一案。杰姬(莫妮卡·波特 Monica Potter 饰)是负责庇护被绑架女孩平安的奸细,正为了自己的疏忽和渎职自责不已,趁此机遇,她激烈要求成为亚历克斯的同伴,一同侦破此案。
  
  随着观察的深入,一个名为加里(迈克尔·温科特 Michael Wincott 饰)的汉子浮出了水面,除了绑架了议员的女儿,他还和城中发生的数起绑架案有着千丝万缕的联系。亚历克斯和杰姬随即展开了岁加里的追捕,但是,老奸巨猾的加里并不会轻易的被警方捕捉,恰恰相反,在不知不觉间,亚历克斯走入了加里所设下的弥天圈套当中。
  1. Video
  2. ID                                       : 1
  3. Format                                   : AVC
  4. Format/Info                              : Advanced Video Codec
  5. Format profile                           : [email protected]
  6. Format settings                          : CABAC / 5 Ref Frames
  7. Format settings, CABAC                   : Yes
  8. Format settings, Reference frames        : 5 frames
  9. Codec ID                                 : V_MPEG4/ISO/AVC
  10. Duration                                 : 1 h 43 min
  11. Bit rate                                 : 9 108 kb/s
  12. Width                                    : 1 920 pixels
  13. Height                                   : 816 pixels
  14. Display aspect ratio                     : 2.35:1
  15. Frame rate mode                          : Constant
  16. Frame rate                               : 23.976 (24000/1001/189150) FPS
  17. Color space                              : YUV
  18. Chroma subsampling                       : 4:2:0
  19. Bit depth                                : 8 bits
  20. Scan type                                : Progressive
  21. Bits/(Pixel*Frame)                       : 0.242
  22. Stream size                              : 6.41 GiB (84%)
  23. Writing library                          : x264 core 142 r2409 d6b4e63
  24. Encoding settings                        : cabac=1 / ref=5 / deblock=1:-3:-3 / analyse=0x3:0x113 / me=umh / subme=8 / psy=1 / psy_rd=1.00:0.00 / mixed_ref=1 / me_range=16 / chroma_me=1 / trellis=1 / 8x8dct=1 / cqm=0 / deadzone=21,11 / fast_pskip=1 / chroma_qp_offset=-2 / threads=18 / lookahead_threads=3 / sliced_threads=0 / nr=0 / decimate=1 / interlaced=0 / bluray_compat=0 / constrained_intra=0 / bframes=3 / b_pyramid=2 / b_adapt=2 / b_bias=0 / direct=3 / weightb=1 / open_gop=0 / weightp=2 / keyint=240 / keyint_min=24 / scenecut=40 / intra_refresh=0 / rc_lookahead=50 / rc=2pass / mbtree=1 / bitrate=9108 / ratetol=1.0 / qcomp=0.60 / qpmin=0 / qpmax=69 / qpstep=4 / cplxblur=20.0 / qblur=0.5 / ip_ratio=1.40 / aq=1:1.00
  25. Language                                 : English
  26. Default                                  : Yes
  27. Forced                                   : No

  28. Audio
  29. ID                                       : 2
  30. Format                                   : DTS
  31. Format/Info                              : Digital Theater Systems
  32. Codec ID                                 : A_DTS
  33. Duration                                 : 1 h 43 min
  34. Bit rate mode                            : Constant
  35. Bit rate                                 : 1 509 kb/s
  36. Channel(s)                               : 6 channels
  37. ChannelLayout_Original                   : C L R Ls Rs LFE
  38. Sampling rate                            : 48.0 kHz
  39. Frame rate                               : 93.750 FPS (512 SPF)
  40. Bit depth                                : 24 bits
  41. Compression mode                         : Lossy
  42. Stream size                              : 1.09 GiB (14%)
  43. Language                                 : English
  44. Default                                  : Yes
  45. Forced                                   : No

  46. Text #1
  47. ID                                       : 3
  48. Format                                   : UTF-8
  49. Codec ID                                 : S_TEXT/UTF8
  50. Codec ID/Info                            : UTF-8 Plain Text
  51. Language                                 : English
  52. Default                                  : No
  53. Forced                                   : No

  54. Text #2
  55. ID                                       : 4
  56. Format                                   : UTF-8
  57. Codec ID                                 : S_TEXT/UTF8
  58. Codec ID/Info                            : UTF-8 Plain Text
  59. Title                                    : SDH
  60. Language                                 : English
  61. Default                                  : No
  62. Forced                                   : No

  63. Menu
  64. 00:00:00.000                             : en:00:00:00.000
  65. 00:05:16.441                             : en:00:05:16.441
  66. 00:13:18.965                             : en:00:13:18.965
  67. 00:23:55.476                             : en:00:23:55.476
  68. 00:30:16.231                             : en:00:30:16.231
  69. 00:40:12.660                             : en:00:40:12.660
  70. 00:50:04.001                             : en:00:50:04.001
  71. 00:59:12.799                             : en:00:59:12.799
  72. 01:10:51.664                             : en:01:10:51.664
  73. 01:18:08.309                             : en:01:18:08.309
  74. 01:22:55.679                             : en:01:22:55.679
  75. 01:36:03.383                             : en:01:36:03.383
复制代码









                                       
                                       

                                       
                                       
                                       




回复

使用道具 举报

懒得打字嘛,点击右侧快捷回复 【右侧内容,后台自定义】
您需要登录后才可以回帖 登录 | 立即加入

本版积分规则

Archiver| |网站地图

Copyright © 2024 Comsenz Inc. Powered by 蓝光电影网

本站内容由用户自主分享和转载自互联网,转载目的在于传递更多信息,并不代表本网赞同其观点和对其真实性负责。

如有侵权、违反国家法律政策行为,请联系我们,我们会第一时间及时清除和处理!

举报反馈邮箱:4k1080.com@gmail.com

快速回复 返回顶部 返回列表