找回密码

查看: 1013|回复: 0

[喜剧] 圣剑屠魔2 Deathstalker.II.DC.1987.1080p.BluRay.x264-GUACAMOLE 6.92GB

[复制链接]
蓝光币
2039
发表于 2020-12-5 09:43:18 | 显示全部楼层 |阅读模式


◎译  名 圣剑屠魔2
◎片  名 Deathstalker II
◎年  代 1987
◎产  地 阿根廷,美国
◎类  别 笑剧 / 行动 / 奇异 / 冒险
◎语  言 英语
◎上映日期 
◎IMDb评分  5.2/10 from 2309 users
◎IMDb链接  https://www.imdb.com/title/tt0092860/
◎豆瓣评分 /10 from 0 users
◎豆瓣链接 https://movie.douban.com/subject/2269679/
◎片  长 89分钟
◎导  演 吉姆·温诺斯基 Jim Wynorski
◎编  剧 吉姆·温诺斯基 Jim Wynorski / R.J. 罗伯森 R.J. Robertson
◎主  演 约翰·特莱斯基 John Terlesky
       莫妮卡·加布里埃尔 Monique Gabrielle
       约翰?拉扎尔 John Lazar
       Toni Naples
       吉姆·温诺斯基 Jim Wynorski
       Dee Booher
◎标  签 美国 | 行动 | 魔幻 | 1987 | 冒险 | 阿根廷 | 奇异 | 笑剧
◎简  介


  “灭亡跟踪者”帮助赛儿摆脱了一些窘境,她为一个更大的使命找到了他的帮助。她流露说她实在是邪恶的伊维公主,可是邪恶的巫师让她被绑架和克隆,以夺取王国的控制权。他们一路前往邪恶的魔法师的大本营,以规复公主的正当职位,一路上碰到了来自魔法师的大盗和凶悍的亚马逊女人们的应战。
  1. Video
  2. ID                                       : 1
  3. Format                                   : AVC
  4. Format/Info                              : Advanced Video Codec
  5. Format profile                           : [email protected]
  6. Format settings                          : CABAC / 4 Ref Frames
  7. Format settings, CABAC                   : Yes
  8. Format settings, Reference frames        : 4 frames
  9. Codec ID                                 : V_MPEG4/ISO/AVC
  10. Duration                                 : 1 h 17 min
  11. Bit rate                                 : 12.3 Mb/s
  12. Width                                    : 1 920 pixels
  13. Height                                   : 1 080 pixels
  14. Display aspect ratio                     : 16:9
  15. Frame rate mode                          : Constant
  16. Frame rate                               : 23.976 (24000/1001/189150) FPS
  17. Color space                              : YUV
  18. Chroma subsampling                       : 4:2:0
  19. Bit depth                                : 8 bits
  20. Scan type                                : Progressive
  21. Bits/(Pixel*Frame)                       : 0.248
  22. Stream size                              : 6.66 GiB (96%)
  23. Writing library                          : x264 core 161 r3027 4121277
  24. Encoding settings                        : cabac=1 / ref=4 / deblock=1:-3:-3 / analyse=0x3:0x133 / me=umh / subme=9 / psy=1 / psy_rd=1.00:0.00 / mixed_ref=1 / me_range=16 / chroma_me=1 / trellis=2 / 8x8dct=1 / cqm=0 / deadzone=21,11 / fast_pskip=0 / chroma_qp_offset=-2 / threads=24 / lookahead_threads=2 / sliced_threads=0 / nr=0 / decimate=1 / interlaced=0 / bluray_compat=0 / constrained_intra=0 / bframes=3 / b_pyramid=2 / b_adapt=2 / b_bias=0 / direct=3 / weightb=1 / open_gop=0 / weightp=2 / keyint=250 / keyint_min=23 / scenecut=40 / intra_refresh=0 / rc_lookahead=60 / rc=crf / mbtree=1 / crf=20.0 / qcomp=0.60 / qpmin=0 / qpmax=69 / qpstep=4 / ip_ratio=1.40 / aq=3:0.60
  25. Default                                  : Yes
  26. Forced                                   : No
  27. Color range                              : Limited
  28. Color primaries                          : BT.709
  29. Transfer characteristics                 : BT.709
  30. Matrix coefficients                      : BT.709

  31. Audio #1
  32. ID                                       : 2
  33. Format                                   : FLAC
  34. Format/Info                              : Free Lossless Audio Codec
  35. Codec ID                                 : A_FLAC
  36. Duration                                 : 1 h 17 min
  37. Bit rate mode                            : Variable
  38. Bit rate                                 : 338 kb/s
  39. Channel(s)                               : 2 channels
  40. Channel layout                           : L R
  41. Sampling rate                            : 48.0 kHz
  42. Frame rate                               : 10.417 FPS (4608 SPF)
  43. Bit depth                                : 24 bits
  44. Compression mode                         : Lossless
  45. Stream size                              : 187 MiB (3%)
  46. Writing library                          : MakeMKV v1.15.1 win(x64-release)
  47. Language                                 : English
  48. Default                                  : Yes
  49. Forced                                   : No

  50. Audio #2
  51. ID                                       : 3
  52. Format                                   : AAC LC
  53. Format/Info                              : Advanced Audio Codec Low Complexity
  54. Codec ID                                 : A_AAC-2
  55. Duration                                 : 1 h 17 min
  56. Bit rate                                 : 136 kb/s
  57. Channel(s)                               : 2 channels
  58. Channel layout                           : L R
  59. Sampling rate                            : 48.0 kHz
  60. Frame rate                               : 46.875 FPS (1024 SPF)
  61. Compression mode                         : Lossy
  62. Stream size                              : 75.4 MiB (1%)
  63. Title                                    : Commentary with John Terlesky, Toni Naples and Jim Wynorski
  64. Language                                 : English
  65. Default                                  : No
  66. Forced                                   : No

  67. Text
  68. ID                                       : 4
  69. Format                                   : PGS
  70. Muxing mode                              : zlib
  71. Codec ID                                 : S_HDMV/PGS
  72. Codec ID/Info                            : Picture based subtitle format used on BDs/HD-DVDs
  73. Duration                                 : 5 min 26 s
  74. Bit rate                                 : 1 304 b/s
  75. Count of elements                        : 6
  76. Stream size                              : 52.0 KiB (0%)
  77. Title                                    : SDH
  78. Language                                 : German
  79. Default                                  : No
  80. Forced                                   : No

  81. Menu
  82. 00:00:00.000                             : en:00:00:00.000
  83. 00:10:00.600                             : en:00:10:00.600
  84. 00:20:01.200                             : en:00:20:01.200
  85. 00:30:01.800                             : en:00:30:01.800
  86. 00:40:02.400                             : en:00:40:02.400
  87. 00:50:03.000                             : en:00:50:03.000
  88. 01:00:03.600                             : en:01:00:03.600
  89. 01:10:04.200                             : en:01:10:04.200
复制代码




                                       
                                       

                                       
                                       
                                       




回复

使用道具 举报

懒得打字嘛,点击右侧快捷回复 【右侧内容,后台自定义】
您需要登录后才可以回帖 登录 | 立即加入

本版积分规则

Archiver| |网站地图

Copyright © 2024 Comsenz Inc. Powered by 蓝光电影网

本站内容由用户自主分享和转载自互联网,转载目的在于传递更多信息,并不代表本网赞同其观点和对其真实性负责。

如有侵权、违反国家法律政策行为,请联系我们,我们会第一时间及时清除和处理!

举报反馈邮箱:4k1080.com@gmail.com

快速回复 返回顶部 返回列表