找回密码

查看: 2573|回复: 0

[动作] 双面疑云/危险线人 Above.Suspicion.2019.1080p.BluRay.REMUX.AVC.DTS-HD.MA.5.1-FGT 28.35GB

[复制链接]
蓝光币
2039
发表于 2021-5-17 19:42:40 | 显示全部楼层 |阅读模式


◎译  名 双面疑云/危险线人(台)/致命疑云
◎片  名 Above Suspicion
◎年  代 2019
◎产  地 美国
◎类  别 行动 / 惊悚 / 犯罪
◎语  言 英语
◎上映日期 2019-07-04(黎巴嫩)
◎豆瓣评分 6.0/10 from 508 users
◎豆瓣链接 https://movie.douban.com/subject/26785800/
◎片  长 98分钟
◎导  演 菲利普·诺伊斯 Phillip Noyce
◎编  剧 克里斯·格罗尔莫 Chris Gerolmo
◎主  演 艾米莉亚·克拉克 Emilia Clarke
       杰克·休斯顿 Jack Huston
       苏菲·洛 Sophie Lowe
       约翰尼·诺克斯维尔 Johnny Knoxville
       奥斯汀·赫伯特 Austin Hébert
       索拉·伯奇 Thora Birch
       卡尔·格洛斯曼 Karl Glusman
       凯文·杜恩 Kevin Dunn
       布瑞恩·李·富兰克林 Brian Lee Franklin
       奥玛·本森·米勒 Omar Benson Miller
       克里斯·马尔基 Chris Mulkey
       布莱特妮·奥格拉迪 Brittany O'Grady
       卢克·斯宾塞·罗伯茨 Luke Spencer Roberts
       约书亚·米克尔 Joshua Mikel
       丹尼尔·R·希尔 Daniel R. Hill
       吉姆·克洛克 Jim Klock
       兰斯·E·尼克尔斯 Lance E. Nichols
       弗兰克·霍伊·泰勒 Frank Hoyt Taylor
       罗伯特·C.特雷维勒 Robert C. Treveiler
       纳撒尼尔·赛兹莫尔 Nathaniel Sizemore
◎标  签 犯罪 | 美国 | 真人真事改编 | 艾米莉亚·克拉克 | 警匪 | 悬疑 | 美国电影 | 人性
◎简  介


  Deadline消息,艾米莉·克拉克、杰克·休斯顿确认加盟菲利普·诺伊斯新片《双面疑云》(Above Suspicion,暂译)。影片故事来历于《纽约时报》专栏作家乔·夏基原著,报告了一位榜样FBI捕快背后的丑闻事务,也是FBI历史上初次为捕快的谋杀行为科罪。
  1. Video
  2. ID                                       : 1
  3. ID in the original source medium         : 4113 (0x1011)
  4. Format                                   : AVC
  5. Format/Info                              : Advanced Video Codec
  6. Format profile                           : [email protected]
  7. Format settings                          : CABAC / 4 Ref Frames
  8. Format settings, CABAC                   : Yes
  9. Format settings, Reference frames        : 4 frames
  10. Codec ID                                 : V_MPEG4/ISO/AVC
  11. Duration                                 : 1 h 44 min
  12. Bit rate mode                            : Variable
  13. Bit rate                                 : 35.5 Mb/s
  14. Maximum bit rate                         : 37.0 Mb/s
  15. Width                                    : 1 920 pixels
  16. Height                                   : 1 080 pixels
  17. Display aspect ratio                     : 16:9
  18. Frame rate mode                          : Constant
  19. Frame rate                               : 23.976 (24000/1001/189150) FPS
  20. Color space                              : YUV
  21. Chroma subsampling                       : 4:2:0
  22. Bit depth                                : 8 bits
  23. Scan type                                : Progressive
  24. Bits/(Pixel*Frame)                       : 0.715
  25. Stream size                              : 26.0 GiB (92%)
  26. Language                                 : English
  27. Default                                  : No
  28. Forced                                   : No
  29. Original source medium                   : Blu-ray
  30. Audio
  31. ID                                       : 2
  32. ID in the original source medium         : 4352 (0x1100)
  33. Format                                   : DTS XLL
  34. Format/Info                              : Digital Theater Systems
  35. Commercial name                          : DTS-HD Master Audio
  36. Codec ID                                 : A_DTS
  37. Duration                                 : 1 h 44 min
  38. Bit rate mode                            : Variable
  39. Bit rate                                 : 3 237 kb/s
  40. Channel(s)                               : 6 channels
  41. Channel layout                           : C L R Ls Rs LFE
  42. Sampling rate                            : 48.0 kHz
  43. Frame rate                               : 93.750 FPS (512 SPF)
  44. Bit depth                                : 24 bits
  45. Compression mode                         : Lossless
  46. Stream size                              : 2.36 GiB (8%)
  47. Title                                    : DTS-HD MA 5.1
  48. Language                                 : English
  49. Default                                  : Yes
  50. Forced                                   : No
  51. Original source medium                   : Blu-ray
  52. Text #1
  53. ID                                       : 3
  54. Format                                   : UTF-8
  55. Codec ID                                 : S_TEXT/UTF8
  56. Codec ID/Info                            : UTF-8 Plain Text
  57. Duration                                 : 1 h 39 min
  58. Bit rate                                 : 56 b/s
  59. Count of elements                        : 1214
  60. Stream size                              : 41.5 KiB (0%)
  61. Title                                    : English-SRT
  62. Language                                 : English
  63. Default                                  : Yes
  64. Forced                                   : No
  65. Text #2
  66. ID                                       : 4
  67. ID in the original source medium         : 4608 (0x1200)
  68. Format                                   : PGS
  69. Muxing mode                              : zlib
  70. Codec ID                                 : S_HDMV/PGS
  71. Codec ID/Info                            : Picture based subtitle format used on BDs/HD-DVDs
  72. Duration                                 : 1 h 42 min
  73. Bit rate                                 : 37.0 kb/s
  74. Count of elements                        : 2616
  75. Stream size                              : 27.2 MiB (0%)
  76. Title                                    : English-PGS
  77. Language                                 : English
  78. Default                                  : No
  79. Forced                                   : No
  80. Original source medium                   : Blu-ray
  81. Text #3
  82. ID                                       : 5
  83. ID in the original source medium         : 4609 (0x1201)
  84. Format                                   : PGS
  85. Muxing mode                              : zlib
  86. Codec ID                                 : S_HDMV/PGS
  87. Codec ID/Info                            : Picture based subtitle format used on BDs/HD-DVDs
  88. Duration                                 : 1 h 43 min
  89. Bit rate                                 : 33.7 kb/s
  90. Count of elements                        : 2469
  91. Stream size                              : 24.9 MiB (0%)
  92. Title                                    : Spanish-PGS
  93. Language                                 : Spanish
  94. Default                                  : No
  95. Forced                                   : No
  96. Original source medium                   : Blu-ray
  97. Menu
  98. 00:00:00.000                             : Chapter 01
  99. 00:07:46.549                             : Chapter 02
  100. 00:12:26.454                             : Chapter 03
  101. 00:21:22.823                             : Chapter 04
  102. 00:24:53.950                             : Chapter 05
  103. 00:30:46.427                             : Chapter 06
  104. 00:38:22.967                             : Chapter 07
  105. 00:44:51.480                             : Chapter 08
  106. 00:52:48.623                             : Chapter 09
  107. 00:56:01.232                             : Chapter 10
  108. 00:59:44.789                             : Chapter 11
  109. 01:07:49.231                             : Chapter 12
  110. 01:13:31.657                             : Chapter 13
  111. 01:20:24.277                             : Chapter 14
  112. 01:28:43.860                             : Chapter 15
  113. 01:36:53.140                             : Chapter 16
复制代码




                                       
                                       

                                       
                                       
                                       




回复

使用道具 举报

懒得打字嘛,点击右侧快捷回复 【右侧内容,后台自定义】
您需要登录后才可以回帖 登录 | 立即加入

本版积分规则

Archiver| |网站地图

Copyright © 2024 Comsenz Inc. Powered by 蓝光电影网

本站内容由用户自主分享和转载自互联网,转载目的在于传递更多信息,并不代表本网赞同其观点和对其真实性负责。

如有侵权、违反国家法律政策行为,请联系我们,我们会第一时间及时清除和处理!

举报反馈邮箱:4k1080.com@gmail.com

快速回复 返回顶部 返回列表