找回密码

查看: 1448|回复: 1

[其他] 熊出没之过年 Boonie.Bears.Homeward.Journey.2013.1080p.BluRay.x264-WiKi 5.53GB

[复制链接]
蓝光币
2039
发表于 2020-9-19 17:07:05 | 显示全部楼层 |阅读模式


◎译  名 Boonie Bears: Homeward Journey
◎片  名 熊出没之过年
◎年  代 2013
◎产  地 中国大陆
◎类  别 动画
◎语  言 汉语普通话
◎上映日期 2013-02-08(中国大陆)
◎IMDb评分  5.6/10 from 55 users
◎IMDb链接  https://www.imdb.com/title/tt2943974/
◎豆瓣评分 8.1/10 from 8351 users
◎豆瓣链接 https://movie.douban.com/subject/21359690/
◎片  长 68分钟
◎导  演 丁亮 Liang Ding
◎编  剧 刘富源 Fuyuan Liu / 黄慧琪 Huiqi Huang
◎主  演 张秉君 Bingjun Zhang
       张伟 Wei Zhang
       辛媛 Yuan Xin
       万图画 Danqing Wan
       谭笑 Xiao Tan
       刘思奇 Siqi Liu
       马浩伦 Haolun Ma
◎标  签 温情 | 动人 | 国产动画 | 熊出没 | 动画 | 儿童 | 笑剧 | 动画片
◎简  介


  春节将至,外收工作的人都归心似箭,仓促赶回家中和亲人团圆。光头强(葛平 配音)由于没钱买回家的车票,只能替李老板(张伟 配音)砍树来赚取路费。熊大(张伟 配音)和熊二(张秉君 配音)得知他们赖以保存的故里又要遭到光头强的破坏,因而构造了一干动物们,在光头强砍树的机械上做了手脚,机械坏了,光头强砍树的计划自然泡了汤。
  
  没法砍树,拿不到人工,这也就意味着光头强能够今年没法子回家过年了。得知此事,熊大和熊二动了怜悯之心,虽然光头强和他们常日里斗智斗勇,是一对朋友,但两头熊还是决议在这个节骨眼上帮助他。它们将坏掉的砍木机改装成为了汽车,打晕了光头强想要送他回家,由此激发了连续串的笑话。
  1. Video
  2. ID                                       : 1
  3. Format                                   : AVC
  4. Format/Info                              : Advanced Video Codec
  5. Format profile                           : [email protected]
  6. Format settings, CABAC                   : Yes
  7. Format settings, ReFrames                : 4 frames
  8. Muxing mode                              : Header stripping
  9. Codec ID                                 : V_MPEG4/ISO/AVC
  10. Duration                                 : 1h 8mn
  11. Bit rate                                 : 10.2 Mbps
  12. Width                                    : 1 920 pixels
  13. Height                                   : 1 080 pixels
  14. Display aspect ratio                     : 16:9
  15. Frame rate mode                          : Constant
  16. Frame rate                               : 25.000 fps
  17. Color space                              : YUV
  18. Chroma subsampling                       : 4:2:0
  19. Bit depth                                : 8 bits
  20. Scan type                                : Progressive
  21. Bits/(Pixel*Frame)                       : 0.196
  22. Stream size                              : 4.72 GiB (86%)
  23. Writing library                          : x264 core 129 r2245 bc13772
  24. Encoding settings                        : cabac=1 / ref=4 / deblock=1:-1:-1 / analyse=0x3:0x133 / me=umh / subme=11 / psy=1 / psy_rd=0.60:0.00 / mixed_ref=1 / me_range=32 / chroma_me=1 / trellis=2 / 8x8dct=1 / cqm=0 / deadzone=21,11 / fast_pskip=0 / chroma_qp_offset=-2 / threads=12 / lookahead_threads=2 / sliced_threads=0 / nr=0 / decimate=1 / interlaced=0 / bluray_compat=0 / constrained_intra=0 / bframes=10 / b_pyramid=2 / b_adapt=2 / b_bias=0 / direct=3 / weightb=1 / open_gop=0 / weightp=2 / keyint=250 / keyint_min=25 / scenecut=40 / intra_refresh=0 / rc_lookahead=60 / rc=2pass / mbtree=0 / bitrate=10153 / ratetol=1.0 / qcomp=0.70 / qpmin=0 / qpmax=69 / qpstep=4 / cplxblur=20.0 / qblur=0.5 / vbv_maxrate=85000 / vbv_bufsize=30000 / nal_hrd=none / ip_ratio=1.40 / pb_ratio=1.30 / aq=1:0.80
  25. Language                                 : English
  26. Default                                  : Yes
  27. Forced                                   : No
  28. Audio #1
  29. ID                                       : 2
  30. Format                                   : AC-3
  31. Format/Info                              : Audio Coding 3
  32. Mode extension                           : CM (complete main)
  33. Format settings, Endianness              : Big
  34. Muxing mode                              : Header stripping
  35. Codec ID                                 : A_AC3
  36. Duration                                 : 1h 8mn
  37. Bit rate mode                            : Constant
  38. Bit rate                                 : 448 Kbps
  39. Channel(s)                               : 2 channels
  40. Channel positions                        : Front: L R
  41. Sampling rate                            : 48.0 KHz
  42. Bit depth                                : 16 bits
  43. Compression mode                         : Lossy
  44. Stream size                              : 218 MiB (4%)
  45. Title                                    : 国语
  46. Language                                 : Chinese
  47. Default                                  : Yes
  48. Forced                                   : No
  49. Audio #2
  50. ID                                       : 3
  51. Format                                   : AC-3
  52. Format/Info                              : Audio Coding 3
  53. Mode extension                           : CM (complete main)
  54. Format settings, Endianness              : Big
  55. Muxing mode                              : Header stripping
  56. Codec ID                                 : A_AC3
  57. Duration                                 : 1h 8mn
  58. Bit rate mode                            : Constant
  59. Bit rate                                 : 448 Kbps
  60. Channel(s)                               : 2 channels
  61. Channel positions                        : Front: L R
  62. Sampling rate                            : 48.0 KHz
  63. Bit depth                                : 16 bits
  64. Compression mode                         : Lossy
  65. Stream size                              : 218 MiB (4%)
  66. Title                                    : 粤语
  67. Language                                 : Chinese
  68. Default                                  : No
  69. Forced                                   : No
  70. Audio #3
  71. ID                                       : 4
  72. Format                                   : AC-3
  73. Format/Info                              : Audio Coding 3
  74. Mode extension                           : CM (complete main)
  75. Format settings, Endianness              : Big
  76. Muxing mode                              : Header stripping
  77. Codec ID                                 : A_AC3
  78. Duration                                 : 1h 8mn
  79. Bit rate mode                            : Constant
  80. Bit rate                                 : 448 Kbps
  81. Channel(s)                               : 2 channels
  82. Channel positions                        : Front: L R
  83. Sampling rate                            : 48.0 KHz
  84. Bit depth                                : 16 bits
  85. Compression mode                         : Lossy
  86. Stream size                              : 218 MiB (4%)
  87. Language                                 : English
  88. Default                                  : No
  89. Forced                                   : No
复制代码









                                       
                                       

                                       
                                       
                                       




回复

使用道具 举报

蓝光币
2
发表于 2022-5-29 18:03:41 | 显示全部楼层
试试能不能下载
回复

使用道具 举报

懒得打字嘛,点击右侧快捷回复 【右侧内容,后台自定义】
您需要登录后才可以回帖 登录 | 立即加入

本版积分规则

Archiver| |网站地图

Copyright © 2024 Comsenz Inc. Powered by 蓝光电影网

本站内容由用户自主分享和转载自互联网,转载目的在于传递更多信息,并不代表本网赞同其观点和对其真实性负责。

如有侵权、违反国家法律政策行为,请联系我们,我们会第一时间及时清除和处理!

举报反馈邮箱:4k1080.com@gmail.com

快速回复 返回顶部 返回列表