找回密码

查看: 1470|回复: 0

[喜剧] 大侦探皮卡丘 Pokemon.Detective.Pikachu.2019.1080p.BluRay.REMUX.AVC.DTS-HD.MA.TrueHD.7.1.Atmos-FGT 23.62GB

[复制链接]
蓝光币
2039
发表于 2019-7-28 12:15:43 | 显示全部楼层 |阅读模式


◎译  名 大侦察皮卡丘 / Detective Pikachu / POKéMON 名侦察皮卡丘(台) / Pokemon / 名侦察皮卡丘 / 宠物小精灵 / 宠物小精灵之名侦察皮卡丘 / 宠物小精灵真人版 / 精灵宝可梦 / 精灵宝可梦之名侦察皮卡丘 / 精灵宝可梦:大侦察皮卡丘
◎片  名 Pokémon Detective Pikachu
◎年  代 2019
◎产  地 美国 / 日本
◎类  别 笑剧 / 动画 / 奇异 / 冒险
◎语  言 英语 / 日语
◎上映日期 2019-05-10(美国/中国大陆)
◎IMDb评分  7.0/10 from 22561 users
◎IMDb链接  http://www.imdb.com/title/tt5884052
◎豆瓣评分 6.7/10 from 100671 users
◎豆瓣链接 https://movie.douban.com/subject/26835471/
◎片  长 104分钟
◎导  演 罗伯·莱特曼 Rob Letterman
◎编  剧 尼科尔·帕尔曼 Nicole Perlman / 亚历克斯·赫什 Alex Hirsch / Satoshi Tajiri
◎主  演 瑞恩·雷诺兹 Ryan Reynolds
      贾斯蒂斯·史姑娘 Justice Smith
      凯瑟琳·纽顿 Kathryn Newton
      克里斯·吉尔 Chris Geere
      比尔·奈伊 Bill Nighy
      渡边谦 Ken Watanabe
      瑞塔·奥拉 Rita Ora
      苏琪·沃特豪斯 Suki Waterhouse
      卡兰·索尼 Karan Soni
      普莉安卡·伯福德 Priyanga Burford
      乔丹·朗 Jordan Long
      贝恩·科拉科 Bern Colla?o
      卡迪夫柯万 Kadiff Kirwan
      奥马尔·查帕罗 Omar Chaparro
      伯纳多·桑托斯 Bernardo Santos
      大谷育江 Ikue Ootani
      露丝·霍洛克斯 Ruth Horrocks
      丹尼尔·厄根 Daniel Eghan
      贾格·帕特尔 Jag Patel
      查利·蕾娅·埃斯奎尔 Charlie Rhea Esquér
      黛博拉·洛克 Deborah Rock
      所罗门·塔伊沃·贾斯提费尔德 Solomon Taiwo Justified
      尼克·欧文福特 Nick Owenford
      凯文·马塔迪恩 Kevin Matadeen
      Diplo

◎标  签 动画 | 美国 | 童年 | 2019 | 日本 | 笑剧 | 动漫 | 游戏改编
◎简  介  
  好莱坞真人电影《大侦察皮卡丘》(暂译)报告了蒂姆·古德曼(贾 斯 提·史姑娘饰) 为寻觅着落不明的父亲来到莱姆市,意外与父亲的前宝可梦同伴大侦察皮卡丘相遇,并惊奇地发现自己是唯一能听懂皮卡丘措辞的人类,他们决议组队踏上揭开真相的刺激冒险之路。探案进程中他们相逢了林林总总 的宝可梦,并意外发现了一个足以扑灭全部宝可梦宇宙的惊天诡计。该电影改编自任天堂3DS同名游戏,由罗伯·莱特曼导演,瑞安·雷诺兹为大侦察皮卡丘配音,贾斯提斯·史姑娘、凯瑟琳·纽顿等主演。
◎获奖情况  
  第5届豆瓣电影年度榜单(2018)
  最值得期待的外语电影(提名)

  1. Video
  2. ID                                       : 1
  3. Format                                   : AVC
  4. Format/Info                              : Advanced Video Codec
  5. Format profile                           : [email protected]
  6. Format settings                          : CABAC / 4 Ref Frames
  7. Format settings, CABAC                   : Yes
  8. Format settings, Reference frames        : 4 frames
  9. Codec ID                                 : V_MPEG4/ISO/AVC
  10. Duration                                 : 1 h 44 min
  11. Bit rate mode                            : Variable
  12. Bit rate                                 : 21.9 Mb/s
  13. Maximum bit rate                         : 32.0 Mb/s
  14. Width                                    : 1 920 pixels
  15. Height                                   : 1 080 pixels
  16. Display aspect ratio                     : 16:9
  17. Frame rate mode                          : Constant
  18. Frame rate                               : 23.976 (24000/1001) FPS
  19. Color space                              : YUV
  20. Chroma subsampling                       : 4:2:0
  21. Bit depth                                : 8 bits
  22. Scan type                                : Progressive
  23. Bits/(Pixel*Frame)                       : 0.440
  24. Stream size                              : 16.0 GiB (68%)
  25. Title                                    : Pokemon.Detective.Pikachu.2019.1080p.BluRay.REMUX.AVC.DTS-HD.MA.TrueHD.7.1.Atmos-FGT
  26. Language                                 : English
  27. Default                                  : No
  28. Forced                                   : No
  29. Audio #1
  30. ID                                       : 2
  31. Format                                   : MLP FBA 16-ch
  32. Format/Info                              : Meridian Lossless Packing FBA with 16-channel presentation
  33. Commercial name                          : Dolby TrueHD with Dolby Atmos
  34. Codec ID                                 : A_TRUEHD
  35. Duration                                 : 1 h 44 min
  36. Bit rate mode                            : Variable
  37. Bit rate                                 : 3 234 kb/s
  38. Maximum bit rate                         : 6 081 kb/s
  39. Channel(s)                               : 8 channels
  40. Channel layout                           : L R C LFE Ls Rs Lb Rb
  41. Sampling rate                            : 48.0 kHz
  42. Frame rate                               : 1 200.000 FPS (40 SPF)
  43. Compression mode                         : Lossless
  44. Stream size                              : 2.36 GiB (10%)
  45. Title                                    : Pokemon.Detective.Pikachu.2019.1080p.BluRay.REMUX.AVC.DTS-HD.MA.TrueHD.7.1.Atmos-FGT
  46. Language                                 : English
  47. Default                                  : Yes
  48. Forced                                   : No
  49. Number of dynamic objects                : 15
  50. Bed channel count                        : 1 channel
  51. Bed channel configuration                : LFE
  52. Audio #2
  53. ID                                       : 3
  54. Format                                   : DTS XLL
  55. Format/Info                              : Digital Theater Systems
  56. Commercial name                          : DTS-HD Master Audio
  57. Codec ID                                 : A_DTS
  58. Duration                                 : 1 h 44 min
  59. Bit rate mode                            : Variable
  60. Bit rate                                 : 4 220 kb/s
  61. Channel(s)                               : 8 channels
  62. Channel layout                           : C L R LFE Lb Rb Lss Rss
  63. Sampling rate                            : 48.0 kHz
  64. Frame rate                               : 93.750 FPS (512 SPF)
  65. Bit depth                                : 24 bits
  66. Compression mode                         : Lossless
  67. Stream size                              : 3.08 GiB (13%)
  68. Title                                    : Pokemon.Detective.Pikachu.2019.1080p.BluRay.REMUX.AVC.DTS-HD.MA.TrueHD.7.1.Atmos-FGT
  69. Language                                 : English
  70. Default                                  : No
  71. Forced                                   : No
  72. Audio #3
  73. ID                                       : 4
  74. Format                                   : AC-3
  75. Format/Info                              : Audio Coding 3
  76. Commercial name                          : Dolby Digital
  77. Codec ID                                 : A_AC3
  78. Duration                                 : 1 h 44 min
  79. Bit rate mode                            : Constant
  80. Bit rate                                 : 640 kb/s
  81. Channel(s)                               : 6 channels
  82. Channel layout                           : L R C LFE Ls Rs
  83. Sampling rate                            : 48.0 kHz
  84. Frame rate                               : 31.250 FPS (1536 SPF)
  85. Bit depth                                : 16 bits
  86. Compression mode                         : Lossy
  87. Stream size                              : 478 MiB (2%)
  88. Title                                    : Pokemon.Detective.Pikachu.2019.1080p.BluRay.REMUX.AVC.DTS-HD.MA.TrueHD.7.1.Atmos-FGT
  89. Language                                 : English
  90. Service kind                             : Complete Main
  91. Default                                  : No
  92. Forced                                   : No
  93. Audio #4
  94. ID                                       : 5
  95. Format                                   : AC-3
  96. Format/Info                              : Audio Coding 3
  97. Commercial name                          : Dolby Digital
  98. Codec ID                                 : A_AC3
  99. Duration                                 : 1 h 44 min
  100. Bit rate mode                            : Constant
  101. Bit rate                                 : 448 kb/s
  102. Channel(s)                               : 6 channels
  103. Channel layout                           : L R C LFE Ls Rs
  104. Sampling rate                            : 48.0 kHz
  105. Frame rate                               : 31.250 FPS (1536 SPF)
  106. Bit depth                                : 16 bits
  107. Compression mode                         : Lossy
  108. Stream size                              : 335 MiB (1%)
  109. Title                                    : Pokemon.Detective.Pikachu.2019.1080p.BluRay.REMUX.AVC.DTS-HD.MA.TrueHD.7.1.Atmos-FGT
  110. Language                                 : English
  111. Service kind                             : Complete Main
  112. Default                                  : No
  113. Forced                                   : No
  114. Audio #5
  115. ID                                       : 6
  116. Format                                   : AC-3
  117. Format/Info                              : Audio Coding 3
  118. Commercial name                          : Dolby Digital
  119. Codec ID                                 : A_AC3
  120. Duration                                 : 1 h 44 min
  121. Bit rate mode                            : Constant
  122. Bit rate                                 : 448 kb/s
  123. Channel(s)                               : 6 channels
  124. Channel layout                           : L R C LFE Ls Rs
  125. Sampling rate                            : 48.0 kHz
  126. Frame rate                               : 31.250 FPS (1536 SPF)
  127. Bit depth                                : 16 bits
  128. Compression mode                         : Lossy
  129. Stream size                              : 335 MiB (1%)
  130. Title                                    : Pokemon.Detective.Pikachu.2019.1080p.BluRay.REMUX.AVC.DTS-HD.MA.TrueHD.7.1.Atmos-FGT
  131. Language                                 : English
  132. Service kind                             : Complete Main
  133. Default                                  : No
  134. Forced                                   : No
  135. Audio #6
  136. ID                                       : 7
  137. Format                                   : AC-3
  138. Format/Info                              : Audio Coding 3
  139. Commercial name                          : Dolby Digital
  140. Codec ID                                 : A_AC3
  141. Duration                                 : 1 h 44 min
  142. Bit rate mode                            : Constant
  143. Bit rate                                 : 448 kb/s
  144. Channel(s)                               : 6 channels
  145. Channel layout                           : L R C LFE Ls Rs
  146. Sampling rate                            : 48.0 kHz
  147. Frame rate                               : 31.250 FPS (1536 SPF)
  148. Bit depth                                : 16 bits
  149. Compression mode                         : Lossy
  150. Stream size                              : 335 MiB (1%)
  151. Title                                    : Pokemon.Detective.Pikachu.2019.1080p.BluRay.REMUX.AVC.DTS-HD.MA.TrueHD.7.1.Atmos-FGT
  152. Language                                 : French
  153. Service kind                             : Complete Main
  154. Default                                  : No
  155. Forced                                   : No
  156. Audio #7
  157. ID                                       : 8
  158. Format                                   : AC-3
  159. Format/Info                              : Audio Coding 3
  160. Commercial name                          : Dolby Digital
  161. Codec ID                                 : A_AC3
  162. Duration                                 : 1 h 44 min
  163. Bit rate mode                            : Constant
  164. Bit rate                                 : 448 kb/s
  165. Channel(s)                               : 6 channels
  166. Channel layout                           : L R C LFE Ls Rs
  167. Sampling rate                            : 48.0 kHz
  168. Frame rate                               : 31.250 FPS (1536 SPF)
  169. Bit depth                                : 16 bits
  170. Compression mode                         : Lossy
  171. Stream size                              : 335 MiB (1%)
  172. Title                                    : Pokemon.Detective.Pikachu.2019.1080p.BluRay.REMUX.AVC.DTS-HD.MA.TrueHD.7.1.Atmos-FGT
  173. Language                                 : Spanish
  174. Service kind                             : Complete Main
  175. Default                                  : No
  176. Forced                                   : No
  177. Audio #8
  178. ID                                       : 9
  179. Format                                   : AC-3
  180. Format/Info                              : Audio Coding 3
  181. Commercial name                          : Dolby Digital
  182. Codec ID                                 : A_AC3
  183. Duration                                 : 1 h 44 min
  184. Bit rate mode                            : Constant
  185. Bit rate                                 : 448 kb/s
  186. Channel(s)                               : 6 channels
  187. Channel layout                           : L R C LFE Ls Rs
  188. Sampling rate                            : 48.0 kHz
  189. Frame rate                               : 31.250 FPS (1536 SPF)
  190. Bit depth                                : 16 bits
  191. Compression mode                         : Lossy
  192. Stream size                              : 335 MiB (1%)
  193. Title                                    : Pokemon.Detective.Pikachu.2019.1080p.BluRay.REMUX.AVC.DTS-HD.MA.TrueHD.7.1.Atmos-FGT
  194. Language                                 : Portuguese
  195. Service kind                             : Complete Main
  196. Default                                  : No
  197. Forced                                   : No
  198. Text #1
  199. ID                                       : 10
  200. Format                                   : UTF-8
  201. Codec ID                                 : S_TEXT/UTF8
  202. Codec ID/Info                            : UTF-8 Plain Text
  203. Duration                                 : 1 h 36 min
  204. Bit rate                                 : 69 b/s
  205. Count of elements                        : 1597
  206. Stream size                              : 49.1 KiB (0%)
  207. Title                                    : English-SRT
  208. Language                                 : English
  209. Default                                  : Yes
  210. Forced                                   : No
  211. Text #2
  212. ID                                       : 11
  213. Format                                   : PGS
  214. Muxing mode                              : zlib
  215. Codec ID                                 : S_HDMV/PGS
  216. Codec ID/Info                            : Picture based subtitle format used on BDs/HD-DVDs
  217. Duration                                 : 1 h 36 min
  218. Bit rate                                 : 41.4 kb/s
  219. Count of elements                        : 3194
  220. Stream size                              : 28.6 MiB (0%)
  221. Title                                    : English-PGS
  222. Language                                 : English
  223. Default                                  : No
  224. Forced                                   : No
  225. Text #3
  226. ID                                       : 12
  227. Format                                   : PGS
  228. Muxing mode                              : zlib
  229. Codec ID                                 : S_HDMV/PGS
  230. Codec ID/Info                            : Picture based subtitle format used on BDs/HD-DVDs
  231. Duration                                 : 1 h 42 min
  232. Bit rate                                 : 27.0 kb/s
  233. Count of elements                        : 2684
  234. Stream size                              : 19.8 MiB (0%)
  235. Title                                    : French-PGS
  236. Language                                 : French
  237. Default                                  : No
  238. Forced                                   : No
  239. Text #4
  240. ID                                       : 13
  241. Format                                   : PGS
  242. Muxing mode                              : zlib
  243. Codec ID                                 : S_HDMV/PGS
  244. Codec ID/Info                            : Picture based subtitle format used on BDs/HD-DVDs
  245. Duration                                 : 1 h 42 min
  246. Bit rate                                 : 32.2 kb/s
  247. Count of elements                        : 2594
  248. Stream size                              : 23.6 MiB (0%)
  249. Title                                    : Spanish-PGS
  250. Language                                 : Spanish
  251. Default                                  : No
  252. Forced                                   : No
  253. Text #5
  254. ID                                       : 14
  255. Format                                   : PGS
  256. Muxing mode                              : zlib
  257. Codec ID                                 : S_HDMV/PGS
  258. Codec ID/Info                            : Picture based subtitle format used on BDs/HD-DVDs
  259. Duration                                 : 1 h 43 min
  260. Bit rate                                 : 32.8 kb/s
  261. Count of elements                        : 2610
  262. Stream size                              : 24.3 MiB (0%)
  263. Title                                    : Portuguese-PGS
  264. Language                                 : Portuguese
  265. Default                                  : No
  266. Forced                                   : No
  267. Text #6
  268. ID                                       : 15
  269. Format                                   : PGS
  270. Muxing mode                              : zlib
  271. Codec ID                                 : S_HDMV/PGS
  272. Codec ID/Info                            : Picture based subtitle format used on BDs/HD-DVDs
  273. Duration                                 : 39 min 47 s
  274. Bit rate                                 : 347 b/s
  275. Count of elements                        : 8
  276. Stream size                              : 101 KiB (0%)
  277. Title                                    : French-FORCED-PGS
  278. Language                                 : French
  279. Default                                  : No
  280. Forced                                   : No
  281. Text #7
  282. ID                                       : 16
  283. Format                                   : PGS
  284. Muxing mode                              : zlib
  285. Codec ID                                 : S_HDMV/PGS
  286. Codec ID/Info                            : Picture based subtitle format used on BDs/HD-DVDs
  287. Duration                                 : 1 h 7 min
  288. Bit rate                                 : 427 b/s
  289. Count of elements                        : 20
  290. Stream size                              : 211 KiB (0%)
  291. Title                                    : Spanish-FORCED-PGS
  292. Language                                 : Spanish
  293. Default                                  : No
  294. Forced                                   : No
  295. Text #8
  296. ID                                       : 17
  297. Format                                   : PGS
  298. Muxing mode                              : zlib
  299. Codec ID                                 : S_HDMV/PGS
  300. Codec ID/Info                            : Picture based subtitle format used on BDs/HD-DVDs
  301. Duration                                 : 1 min 50 s
  302. Bit rate                                 : 2 659 b/s
  303. Count of elements                        : 4
  304. Stream size                              : 35.9 KiB (0%)
  305. Title                                    : Portuguese-FORCED-PGS
  306. Language                                 : Portuguese
  307. Default                                  : No
  308. Forced                                   : No
  309. Menu
  310. 00:00:00.000                             : en:Chapter 01
  311. 00:06:55.957                             : en:Chapter 02
  312. 00:15:36.685                             : en:Chapter 03
  313. 00:24:06.445                             : en:Chapter 04
  314. 00:31:00.108                             : en:Chapter 05
  315. 00:40:45.943                             : en:Chapter 06
  316. 00:49:57.077                             : en:Chapter 07
  317. 00:59:49.669                             : en:Chapter 08
  318. 01:09:22.783                             : en:Chapter 09
  319. 01:16:59.990                             : en:Chapter 10
  320. 01:23:20.829                             : en:Chapter 11
  321. 01:30:55.366                             : en:Chapter 12
  322. 01:35:49.160                             : en:Chapter 13
复制代码






                                       
                                       

                                       
                                       
                                       




大侦察皮卡丘 Pokemon.Detective.Pikachu.2019.1080p.BluRay.REMUX.AVC.DTS-HD.MA.TrueHD.7.1.Atmos-FGT 23.62GB

Pokemon.Detective.Pikachu.2019.1080p.BluRay.REMUX.AVC.DTS-HD.MA.TrueHD.7.1.Atmos.torrent

59.63 KB, 下载次数: 5, 下载积分: 蓝光币 -2

回复

使用道具 举报

懒得打字嘛,点击右侧快捷回复 【右侧内容,后台自定义】
您需要登录后才可以回帖 登录 | 立即加入

本版积分规则

Archiver| |网站地图

Copyright © 2024 Comsenz Inc. Powered by 蓝光电影网

本站内容由用户自主分享和转载自互联网,转载目的在于传递更多信息,并不代表本网赞同其观点和对其真实性负责。

如有侵权、违反国家法律政策行为,请联系我们,我们会第一时间及时清除和处理!

举报反馈邮箱:4k1080.com@gmail.com

快速回复 返回顶部 返回列表