找回密码

查看: 4184|回复: 3

[动作] 特种空勤团:红色通缉令/SAS:红色通知 SAS.Red.Notice.2021.1080p.BluRay.REMUX.AVC.DTS-HD.MA.5.1-FGT 28.21GB

[复制链接]
蓝光币
2039
发表于 2021-5-13 14:56:43 | 显示全部楼层 |阅读模式


◎译  名 特种空勤团:红色通缉令/SAS:红色告诉
◎片  名 SAS: Red Notice
◎年  代 2021
◎产  地 英国,匈牙利,荷兰,瑞士
◎类  别 行动 / 犯罪
◎语  言 英语
◎上映日期 2021-03-12(英国)
◎IMDb评分  4.9/10 from 5646 users
◎IMDb链接  https://www.imdb.com/title/tt4479380/
◎豆瓣评分 5.4/10 from 736 users
◎豆瓣链接 https://movie.douban.com/subject/26322998/
◎导  演 马格努斯·马滕斯 Magnus Martens / 尼克·拉夫 Nick Love
◎编  剧 Andy McNab
◎主  演 萨姆·修汉 Sam Heughan
       鲁比·罗丝 Ruby Rose
       安迪·瑟金斯 Andy Serkis
       汉娜·乔恩-卡门 Hannah John-Kamen
       汤姆·霍珀 Tom Hopper
       诺埃尔·克拉克 Noel Clarke
       汤姆·威尔金森 Tom Wilkinson
       欧文·约曼 Owain Yeoman
       雷·潘莎基 Ray Panthaki
       安妮·雷德 Anne Reid
       陆思敬 Jing Lusi
       萨拉·温特 Sarah Winter
       理查德·麦凯布 Richard McCabe
       道格拉斯·瑞斯 Douglas Reith
       戴兰·史姑娘 Dylan Smith
       卡罗琳·博尔顿 Caroline Boulton
       阿提拉·阿帕 Attila árpa
       蒂姆·费林汉姆 Tim Fellingham
       泰·赫尔利 Ty Hurley
       马丁·安格鲍尔 Martin Angerbauer
       罗德里克·希尔 Roderick Hill
       巴尔·瓦斯维尔斯 Balázs Veres
◎标  签 行动 | 英国 | 犯罪 | 2021 | 电影 | B欧洲 | 2020观影 | 2020
◎简  介


  一支由拉兹洛·安东诺夫带领的练习有素的罪犯组成的小军队在英吉祥海峡深处劫持了“欧洲之星”。
  1. Video
  2. ID                                       : 1
  3. ID in the original source medium         : 4113 (0x1011)
  4. Format                                   : AVC
  5. Format/Info                              : Advanced Video Codec
  6. Format profile                           : [email protected]
  7. Format settings                          : CABAC / 3 Ref Frames
  8. Format settings, CABAC                   : Yes
  9. Format settings, Reference frames        : 3 frames
  10. Codec ID                                 : V_MPEG4/ISO/AVC
  11. Duration                                 : 2 h 3 min
  12. Bit rate mode                            : Variable
  13. Bit rate                                 : 29.0 Mb/s
  14. Maximum bit rate                         : 35.0 Mb/s
  15. Width                                    : 1 920 pixels
  16. Height                                   : 1 080 pixels
  17. Display aspect ratio                     : 16:9
  18. Frame rate mode                          : Constant
  19. Frame rate                               : 23.976 (24000/1001/189150) FPS
  20. Color space                              : YUV
  21. Chroma subsampling                       : 4:2:0
  22. Bit depth                                : 8 bits
  23. Scan type                                : Progressive
  24. Bits/(Pixel*Frame)                       : 0.583
  25. Stream size                              : 25.1 GiB (89%)
  26. Language                                 : English
  27. Default                                  : No
  28. Forced                                   : No
  29. Original source medium                   : Blu-ray
  30. Audio
  31. ID                                       : 2
  32. ID in the original source medium         : 4353 (0x1101)
  33. Format                                   : DTS XLL
  34. Format/Info                              : Digital Theater Systems
  35. Commercial name                          : DTS-HD Master Audio
  36. Codec ID                                 : A_DTS
  37. Duration                                 : 2 h 3 min
  38. Bit rate mode                            : Variable
  39. Bit rate                                 : 3 636 kb/s
  40. Channel(s)                               : 6 channels
  41. Channel layout                           : C L R Ls Rs LFE
  42. Sampling rate                            : 48.0 kHz
  43. Frame rate                               : 93.750 FPS (512 SPF)
  44. Bit depth                                : 24 bits
  45. Compression mode                         : Lossless
  46. Stream size                              : 3.14 GiB (11%)
  47. Title                                    : DTS-HD MA 5.1
  48. Language                                 : English
  49. Default                                  : Yes
  50. Forced                                   : No
  51. Original source medium                   : Blu-ray
  52. Text
  53. ID                                       : 3
  54. Format                                   : UTF-8
  55. Codec ID                                 : S_TEXT/UTF8
  56. Codec ID/Info                            : UTF-8 Plain Text
  57. Duration                                 : 1 h 57 min
  58. Bit rate                                 : 50 b/s
  59. Count of elements                        : 1406
  60. Stream size                              : 43.9 KiB (0%)
  61. Title                                    : English-SRT
  62. Language                                 : English
  63. Default                                  : Yes
  64. Forced                                   : No
  65. Menu
  66. 00:00:00.000                             : Chapter 01
  67. 00:06:55.164                             : Chapter 02
  68. 00:18:20.891                             : Chapter 03
  69. 00:30:30.995                             : Chapter 04
  70. 00:39:43.506                             : Chapter 05
  71. 00:50:10.465                             : Chapter 06
  72. 01:00:45.350                             : Chapter 07
  73. 01:11:57.688                             : Chapter 08
  74. 01:21:57.078                             : Chapter 09
  75. 01:34:29.163                             : Chapter 10
  76. 01:49:21.555                             : Chapter 11
  77. 01:58:25.431                             : Chapter 12
复制代码





                                       
                                       

                                       
                                       
                                       




回复

使用道具 举报

蓝光币
27
发表于 2021-9-27 08:43:33 | 显示全部楼层
楼主发贴辛苦了,谢谢楼主分享!我觉得蓝光电影网是注册对了!
回复

使用道具 举报

蓝光币
4
发表于 2021-11-27 18:35:52 | 显示全部楼层

楼主太厉害了!楼主,电影应该很好看我觉得蓝光电影网真是个好地方!
回复

使用道具 举报

蓝光币
163
发表于 2021-11-30 21:09:35 | 显示全部楼层
楼主发贴辛苦了,谢谢楼主分享!我觉得蓝光电影网是注册对了!
回复

使用道具 举报

懒得打字嘛,点击右侧快捷回复 【右侧内容,后台自定义】
您需要登录后才可以回帖 登录 | 立即加入

本版积分规则

Archiver| |网站地图

Copyright © 2024 Comsenz Inc. Powered by 蓝光电影网

本站内容由用户自主分享和转载自互联网,转载目的在于传递更多信息,并不代表本网赞同其观点和对其真实性负责。

如有侵权、违反国家法律政策行为,请联系我们,我们会第一时间及时清除和处理!

举报反馈邮箱:4k1080.com@gmail.com

快速回复 返回顶部 返回列表