找回密码

查看: 1555|回复: 3

[其他] 圣斗士星矢:圣域传说 Saint.Seiya.Legend.Of.Sanctuary.2014.JAPANESE.1080p.BluRay.x264.DTS-WiKi 8.04GB

[复制链接]
蓝光币
2039
发表于 2020-9-19 17:05:01 | 显示全部楼层 |阅读模式


◎译  名 圣斗士星矢:圣域传闻/Saint Seiya: Legend of Sanctuary/圣斗士星矢 Legend of Sanctuary
◎片  名 聖闘士星矢 Legend of Sanctuary
◎年  代 2014
◎产  地 日本
◎类  别 动画
◎语  言 日语
◎上映日期 2014-06-21(日本) / 2016-02-26(中国大陆)
◎IMDb评分  5.4/10 from 4141 users
◎IMDb链接  https://www.imdb.com/title/tt2231489/
◎豆瓣评分 6.4/10 from 18104 users
◎豆瓣链接 https://movie.douban.com/subject/10480973/
◎片  长 93分钟
◎导  演 佐藤敬一 Kei'ichi Sato
◎编  剧 铃木智寻 Tomohiro Suzuki
◎主  演 石川界人 Kaito Ishikawa
       赤羽根健治 Kenji Akabane
       小野贤章 Kensho Ono
       冈本信彦 Nobuhiko Okamoto
       野岛健儿 Kenji Nojima
       小山力也 Rikiya Koyama
       川田绅司 Shinji Kawada
       真殿光昭 Mitsuaki Madono
       浪川大辅 Daisuke Namikawa
       平田广明 Hiroaki Hirata
       宫本充 Mitsuru Miyamoto
       浅野真澄 Masumi Asano
       桐本拓哉 Kirimoto Takuya
       森川智之 Toshiyuki Morikawa
       井上刚 Gou Inoue
       岛田敏 Bin Shimada
       兴梠里美 Satomi Koorogi
       诸星堇 Sumire Morohoshi
       吉永拓斗 Yoshinaga Takuto
       沼田祐介 Numata Yusuke
       藤本隆弘 Fujimoto Takahiro
       服卷浩司 Haramaki Kouji
       金本凉辅 Kanemoto Ryousuke
       佐佐木彩夏 Ayaka Sasaki
       大杉涟 Ren Ohsugi
       山寺宏一 K?ichi Yamadera
       Kirimoto Takuya
       曹真 Zhen Cao
       赵乾景 Qianjing Zhao
       Takuya Kirimoto
       山崎胜之 Katsuyuki Yamazaki
       刘北辰 Beichen Liu
◎标  签 动画 | 圣斗士 | 日本 | 戏院版 | 热血 | 童年 | 2014 | CG
◎简  介


  16年前,射手座黄金圣斗士艾欧洛斯怀抱实在的女神转世雅典娜逃出圣域,途中遭到双子座撒卡和摩羯座修拉的阻击身负重伤。命运的趋向下,弥留一线的艾欧洛斯将女神拜托给恰好来喜马拉雅山脉探险的日本城户财团总裁城户光政(大杉涟 配音)。知晓后果结果的光政将女神带回日本,并为之起名沙织,以孙女的名义将其抚养长大。接管命运和女神的感化,经过艰辛练习的星矢(石川界人 配音)、紫龙(赤羽根健治 配音)、冰河(小野贤章 配音)、瞬(冈本信彦 配音)等少年相继回到日本,现在他们已长大为足以独当一面的圣斗士。
  
  与此同时,奉教皇之命的刺客持续不断从圣域来到日本,一场足以载入史册的正邪之战就此拉开序幕……
  1. Video
  2. ID                                       : 1
  3. Format                                   : AVC
  4. Format/Info                              : Advanced Video Codec
  5. Format profile                           : [email protected]
  6. Format settings, CABAC                   : Yes
  7. Format settings, ReFrames                : 5 frames
  8. Muxing mode                              : Header stripping
  9. Codec ID                                 : V_MPEG4/ISO/AVC
  10. Duration                                 : 1h 32mn
  11. Bit rate                                 : 10.8 Mbps
  12. Width                                    : 1 920 pixels
  13. Height                                   : 804 pixels
  14. Display aspect ratio                     : 2.40:1
  15. Frame rate mode                          : Constant
  16. Frame rate                               : 23.976 fps
  17. Color space                              : YUV
  18. Chroma subsampling                       : 4:2:0
  19. Bit depth                                : 8 bits
  20. Scan type                                : Progressive
  21. Bits/(Pixel*Frame)                       : 0.291
  22. Stream size                              : 6.81 GiB (86%)
  23. Writing library                          : x264 core 129 r2245 bc13772
  24. Encoding settings                        : cabac=1 / ref=5 / deblock=1:-1:-1 / analyse=0x3:0x133 / me=umh / subme=11 / psy=1 / psy_rd=0.60:0.00 / mixed_ref=1 / me_range=32 / chroma_me=1 / trellis=2 / 8x8dct=1 / cqm=0 / deadzone=21,11 / fast_pskip=0 / chroma_qp_offset=-2 / threads=12 / lookahead_threads=2 / sliced_threads=0 / nr=0 / decimate=1 / interlaced=0 / bluray_compat=0 / constrained_intra=0 / bframes=10 / b_pyramid=2 / b_adapt=2 / b_bias=0 / direct=3 / weightb=1 / open_gop=0 / weightp=2 / keyint=250 / keyint_min=23 / scenecut=40 / intra_refresh=0 / rc_lookahead=60 / rc=2pass / mbtree=0 / bitrate=10786 / ratetol=1.0 / qcomp=0.70 / qpmin=0 / qpmax=69 / qpstep=4 / cplxblur=20.0 / qblur=0.5 / vbv_maxrate=40000 / vbv_bufsize=30000 / nal_hrd=none / ip_ratio=1.40 / pb_ratio=1.30 / aq=1:0.80
  25. Language                                 : English
  26. Default                                  : Yes
  27. Forced                                   : No
  28. Audio
  29. ID                                       : 2
  30. Format                                   : DTS
  31. Format/Info                              : Digital Theater Systems
  32. Mode                                     : 16
  33. Format settings, Endianness              : Big
  34. Muxing mode                              : Header stripping
  35. Codec ID                                 : A_DTS
  36. Duration                                 : 1h 32mn
  37. Bit rate mode                            : Constant
  38. Bit rate                                 : 1 509 Kbps
  39. Channel(s)                               : 6 channels
  40. Channel positions                        : Front: L C R, Side: L R, LFE
  41. Sampling rate                            : 48.0 KHz
  42. Bit depth                                : 16 bits
  43. Compression mode                         : Lossy
  44. Stream size                              : 999 MiB (12%)
  45. Language                                 : Japanese
  46. Default                                  : Yes
  47. Forced                                   : No
复制代码




                                       
                                       

                                       
                                       
                                       




回复

使用道具 举报

蓝光币
29
发表于 2022-6-11 12:19:17 | 显示全部楼层
收藏了。。谢谢楼主!!!
回复

使用道具 举报

蓝光币
0
发表于 2023-6-12 19:12:50 | 显示全部楼层
谢谢楼主分享,感谢有你
回复

使用道具 举报

蓝光币
12
发表于 2023-7-15 22:49:00 | 显示全部楼层
taihaole太好了哈 谢谢分享
回复

使用道具 举报

懒得打字嘛,点击右侧快捷回复 【右侧内容,后台自定义】
您需要登录后才可以回帖 登录 | 立即加入

本版积分规则

Archiver| |网站地图

Copyright © 2024 Comsenz Inc. Powered by 蓝光电影网

本站内容由用户自主分享和转载自互联网,转载目的在于传递更多信息,并不代表本网赞同其观点和对其真实性负责。

如有侵权、违反国家法律政策行为,请联系我们,我们会第一时间及时清除和处理!

举报反馈邮箱:4k1080.com@gmail.com

快速回复 返回顶部 返回列表