找回密码

查看: 1141|回复: 0

[动作] 第二指令/铁血副官 Second.In.Command.2006.1080p.BluRay.x264-SADPANDA 6.56GB

[复制链接]
蓝光币
2048
发表于 2019-7-9 15:43:20 | 显示全部楼层 |阅读模式


◎译  名 第二指令 / 铁血副官
◎片  名 Second In Command
◎年  代 2006
◎产  地 美国 / 罗马尼亚
◎类  别 行动 / 惊悚
◎语  言 英语
◎上映日期 2006-05-02
◎IMDb评分  5.1/10 from 5921 users
◎IMDb链接  http://www.imdb.com/title/tt0458471
◎豆瓣评分 5.6/10 from 306 users
◎豆瓣链接 https://movie.douban.com/subject/1767738/
◎片  长 92 分钟
◎导  演 西蒙·费尔罗斯 Simon Fellows
◎主  演 尚格·云顿 Jean-Claude Van Damme
      Julie Cox
      William Tapley

◎标  签 行动 | 美国 | 尚格·云顿 | 战争 | 美国电影 | 2006 | 铁血副官 | 电影
◎简  介  
  尚格·云顿饰演美国大使的刚上任副官,使馆位于一个动乱不安的东欧小国. 当该国的叛乱者诡计策动政变时, 国家总统躲在使馆要求庇护. 因而兵器精巧的叛乱者把使馆团团包围,更把大使杀戮,现在惟有依靠尚格?云顿和使馆里的小批美国水兵陆战队员来对于眼前这些凶悍的仇敌了……
  1. Video
  2. ID                                       : 1
  3. Format                                   : AVC
  4. Format/Info                              : Advanced Video Codec
  5. Format profile                           : [email protected]
  6. Format settings                          : CABAC / 4 Ref Frames
  7. Format settings, CABAC                   : Yes
  8. Format settings, ReFrames                : 4 frames
  9. Codec ID                                 : V_MPEG4/ISO/AVC
  10. Duration                                 : 1 h 31 min
  11. Bit rate                                 : 8 730 kb/s
  12. Width                                    : 1 920 pixels
  13. Height                                   : 1 040 pixels
  14. Display aspect ratio                     : 1.85:1
  15. Frame rate mode                          : Constant
  16. Frame rate                               : 23.976 (24000/1001) FPS
  17. Color space                              : YUV
  18. Chroma subsampling                       : 4:2:0
  19. Bit depth                                : 8 bits
  20. Scan type                                : Progressive
  21. Bits/(Pixel*Frame)                       : 0.182
  22. Stream size                              : 5.46 GiB (83%)
  23. Writing library                          : x264 core 142 r2389 956c8d8
  24. Encoding settings                        : cabac=1 / ref=4 / deblock=1:0:0 / analyse=0x3:0x133 / me=umh / subme=8 / psy=1 / psy_rd=1.00:0.00 / mixed_ref=1 / me_range=16 / chroma_me=1 / trellis=1 / 8x8dct=1 / cqm=0 / deadzone=21,11 / fast_pskip=0 / chroma_qp_offset=-2 / threads=18 / lookahead_threads=3 / sliced_threads=0 / nr=0 / decimate=1 / interlaced=0 / bluray_compat=0 / constrained_intra=0 / bframes=3 / b_pyramid=2 / b_adapt=1 / b_bias=0 / direct=1 / weightb=1 / open_gop=0 / weightp=2 / keyint=250 / keyint_min=23 / scenecut=40 / intra_refresh=0 / rc_lookahead=40 / rc=2pass / mbtree=1 / bitrate=8730 / ratetol=1.0 / qcomp=0.60 / qpmin=0 / qpmax=69 / qpstep=4 / cplxblur=20.0 / qblur=0.5 / ip_ratio=1.40 / aq=1:1.00
  25. Language                                 : English
  26. Default                                  : Yes
  27. Forced                                   : No
  28. Audio
  29. ID                                       : 2
  30. Format                                   : DTS
  31. Format/Info                              : Digital Theater Systems
  32. Codec ID                                 : A_DTS
  33. Duration                                 : 1 h 31 min
  34. Bit rate mode                            : Constant
  35. Bit rate                                 : 1 509 kb/s
  36. Channel(s)                               : 6 channels
  37. Channel positions                        : Front: L C R, Side: L R, LFE
  38. Sampling rate                            : 48.0 kHz
  39. Frame rate                               : 93.750 FPS (512 SPF)
  40. Bit depth                                : 24 bits
  41. Compression mode                         : Lossy
  42. Stream size                              : 990 MiB (15%)
  43. Default                                  : Yes
  44. Forced                                   : No
  45. Menu
  46. 00:00:00.000                             : en:00:00:00.000
  47. 00:07:41.836                             : en:00:07:41.836
  48. 00:14:12.560                             : en:00:14:12.560
  49. 00:20:36.735                             : en:00:20:36.735
  50. 00:27:47.165                             : en:00:27:47.165
  51. 00:35:23.705                             : en:00:35:23.705
  52. 00:42:06.023                             : en:00:42:06.023
  53. 00:48:52.555                             : en:00:48:52.555
  54. 00:56:09.741                             : en:00:56:09.741
  55. 01:08:11.421                             : en:01:08:11.421
  56. 01:11:42.715                             : en:01:11:42.715
  57. 01:17:25.266                             : en:01:17:25.266
复制代码









                                       
                                       

                                       
                                       
                                       




回复

使用道具 举报

懒得打字嘛,点击右侧快捷回复 【右侧内容,后台自定义】
您需要登录后才可以回帖 登录 | 立即加入

本版积分规则

Archiver| |网站地图

Copyright © 2024 Comsenz Inc. Powered by 蓝光电影网

本站内容由用户自主分享和转载自互联网,转载目的在于传递更多信息,并不代表本网赞同其观点和对其真实性负责。

如有侵权、违反国家法律政策行为,请联系我们,我们会第一时间及时清除和处理!

举报反馈邮箱:4k1080.com@gmail.com

快速回复 返回顶部 返回列表