找回密码

查看: 2159|回复: 0

[动作] 外星罪孽/宇宙罪孽 Cosmic.Sin.2021.1080p.BluRay.REMUX.AVC.DTS-HD.MA.5.1-FGT 12.70GB

[复制链接]
蓝光币
2039
发表于 2021-5-13 14:33:12 | 显示全部楼层 |阅读模式


◎译  名 外星罪孽/宇宙罪孽/终极异噬界(台)
◎片  名 Cosmic Sin
◎年  代 2021
◎产  地 美国
◎类  别 行动 / 科幻 / 冒险
◎语  言 英语
◎上映日期 2021-03-01(英国收集) / 2021-03-12(美国收集)
◎IMDb评分  2.5/10 from 5366 users
◎IMDb链接  https://www.imdb.com/title/tt11762434/
◎豆瓣评分 3.2/10 from 654 users
◎豆瓣链接 https://movie.douban.com/subject/34967032/
◎片  长 88分钟
◎导  演 爱德华·德雷克 Edward Drake
◎编  剧 爱德华·德雷克 Edward Drake / 科里·拉奇 Corey Large
◎主  演 弗兰克·格里罗 Frank Grillo
       布鲁斯·威利斯 Bruce Willis
       布兰登·托马斯·李 Brandon Thomas Lee
       科里·拉奇 Corey Large
       C.J. Perry
       佩瑞·里维斯 Perrey Reeves
       洛奇林·莫罗 Lochlyn Munro
       科斯塔斯·曼迪勒 Costas Mandylor
       艾娃·德·多米尼奇 Eva De Dominici
       阿黛莱德·凯恩 Adelaide Kane
       特雷弗·格雷茨基 Trevor Gretzky
       约翰尼·梅辛纳 Johnny Messner
       卢克·威尔逊 Luke Wilson
◎标  签 科幻 | 布鲁斯·威利斯 | 2021 | 美国 | 行动 | 美国电影 | 冒险 | 电影
◎简  介


  布鲁斯·威利斯将主演科幻题材影片[外星罪孽](Cosmic Sin,暂译)。科里·拉奇、Edward Drake结合执导并配合操刀剧本。该片报告具有传染并控制人类才能的外星物种入侵地球,一群战士与科学家必须自告奋勇,为了人类而战役。
  1. Video
  2. ID                                       : 1
  3. ID in the original source medium         : 4113 (0x1011)
  4. Format                                   : AVC
  5. Format/Info                              : Advanced Video Codec
  6. Format profile                           : [email protected]
  7. Format settings                          : CABAC / 4 Ref Frames
  8. Format settings, CABAC                   : Yes
  9. Format settings, Reference frames        : 4 frames
  10. Codec ID                                 : V_MPEG4/ISO/AVC
  11. Duration                                 : 1 h 28 min
  12. Bit rate mode                            : Variable
  13. Bit rate                                 : 18.0 Mb/s
  14. Maximum bit rate                         : 38.0 Mb/s
  15. Width                                    : 1 920 pixels
  16. Height                                   : 1 080 pixels
  17. Display aspect ratio                     : 16:9
  18. Frame rate mode                          : Constant
  19. Frame rate                               : 23.976 (24000/1001/189150) FPS
  20. Standard                                 : Component
  21. Color space                              : YUV
  22. Chroma subsampling                       : 4:2:0
  23. Bit depth                                : 8 bits
  24. Scan type                                : Progressive
  25. Bits/(Pixel*Frame)                       : 0.362
  26. Stream size                              : 11.1 GiB (87%)
  27. Writing library                          : x264 core 155
  28. Encoding settings                        : cabac=1 / ref=4 / deblock=1:0:0 / analyse=0x3:0x113 / me=hex / subme=7 / psy=1 / psy_rd=1.00:0.00 / mixed_ref=1 / me_range=16 / chroma_me=1 / trellis=1 / 8x8dct=1 / cqm=1 / deadzone=21,11 / fast_pskip=1 / chroma_qp_offset=-2 / threads=34 / lookahead_threads=5 / sliced_threads=0 / slices=4 / nr=0 / decimate=1 / interlaced=0 / minigop=1 / stitchable=1 / constrained_intra=0 / bframes=3 / b_pyramid=0 / b_adapt=1 / b_bias=0 / direct=1 / weightb=1 / open_gop=1 / weightp=1 / keyint=24 / keyint_min=1 / scenecut=40 / intra_refresh=0 / rc_lookahead=24 / rc=2pass / mbtree=1 / bitrate=18000 / ratetol=1.0 / qcomp=0.60 / qpmin=3 / qpmax=69 / qpstep=4 / cplxblur=20.0 / qblur=0.5 / vbv_maxrate=38000 / vbv_bufsize=30000 / nal_hrd=vbr / filler=0 / ip_ratio=1.40 / aq=1:1.00
  29. Language                                 : English
  30. Default                                  : No
  31. Forced                                   : No
  32. Color range                              : Limited
  33. Color primaries                          : BT.709
  34. Transfer characteristics                 : BT.709
  35. Matrix coefficients                      : BT.709
  36. Original source medium                   : Blu-ray
  37. Audio
  38. ID                                       : 2
  39. ID in the original source medium         : 4353 (0x1101)
  40. Format                                   : DTS XLL
  41. Format/Info                              : Digital Theater Systems
  42. Commercial name                          : DTS-HD Master Audio
  43. Codec ID                                 : A_DTS
  44. Duration                                 : 1 h 28 min
  45. Bit rate mode                            : Variable
  46. Bit rate                                 : 2 599 kb/s
  47. Channel(s)                               : 6 channels
  48. Channel layout                           : C L R Ls Rs LFE
  49. Sampling rate                            : 48.0 kHz
  50. Frame rate                               : 93.750 FPS (512 SPF)
  51. Bit depth                                : 24 bits
  52. Compression mode                         : Lossless
  53. Stream size                              : 1.60 GiB (13%)
  54. Title                                    : DTS-HD MA 5.1
  55. Language                                 : English
  56. Default                                  : Yes
  57. Forced                                   : No
  58. Original source medium                   : Blu-ray
  59. Text
  60. ID                                       : 3
  61. Format                                   : UTF-8
  62. Codec ID                                 : S_TEXT/UTF8
  63. Codec ID/Info                            : UTF-8 Plain Text
  64. Duration                                 : 1 h 22 min
  65. Bit rate                                 : 44 b/s
  66. Count of elements                        : 961
  67. Stream size                              : 27.0 KiB (0%)
  68. Title                                    : English-SRT
  69. Language                                 : English
  70. Default                                  : Yes
  71. Forced                                   : No
  72. Menu
  73. 00:00:00.000                             : Chapter 01
  74. 00:07:28.656                             : Chapter 02
  75. 00:14:01.340                             : Chapter 03
  76. 00:19:38.010                             : Chapter 04
  77. 00:29:02.907                             : Chapter 05
  78. 00:35:38.511                             : Chapter 06
  79. 00:41:59.892                             : Chapter 07
  80. 00:50:04.876                             : Chapter 08
  81. 00:57:09.551                             : Chapter 09
  82. 01:04:17.144                             : Chapter 10
  83. 01:09:38.757                             : Chapter 11
  84. 01:16:40.178                             : Chapter 12
  85. 01:25:28.748                             : Chapter 13
复制代码






                                       
                                       

                                       
                                       
                                       




回复

使用道具 举报

懒得打字嘛,点击右侧快捷回复 【右侧内容,后台自定义】
您需要登录后才可以回帖 登录 | 立即加入

本版积分规则

Archiver| |网站地图

Copyright © 2024 Comsenz Inc. Powered by 蓝光电影网

本站内容由用户自主分享和转载自互联网,转载目的在于传递更多信息,并不代表本网赞同其观点和对其真实性负责。

如有侵权、违反国家法律政策行为,请联系我们,我们会第一时间及时清除和处理!

举报反馈邮箱:4k1080.com@gmail.com

快速回复 返回顶部 返回列表