找回密码

查看: 954|回复: 0

[喜剧] 布鲁克林吸血鬼/我吸我吸我吸吸吸 Vampire.In.Brooklyn.1995.1080p.BluRay.x264-GETiT 10.34GB

[复制链接]
蓝光币
2039
发表于 2020-12-4 15:58:50 | 显示全部楼层 |阅读模式


◎译  名 布鲁克林吸血鬼/我吸我吸我吸吸吸
◎片  名 Vampire in Brooklyn
◎年  代 1995
◎产  地 美国
◎类  别 笑剧 / 恋爱 / 可骇
◎语  言 英语
◎上映日期 1995-01-23
◎IMDb评分  4.6/10 from 21517 users
◎IMDb链接  https://www.imdb.com/title/tt0114825/
◎豆瓣评分 5.1/10 from 145 users
◎豆瓣链接 https://movie.douban.com/subject/1301786/
◎片  长 100 分钟
◎导  演 韦斯·克雷文 Wes Craven
◎编  剧 查理·墨菲 Charles Q. Murphy / 艾迪·墨菲 Eddie Murphy
◎主  演 安吉拉·贝塞特 Angela Bassett
       艾迪·墨菲 Eddie Murphy
       艾伦·佩恩 Allen Payne
       乔安娜·卡西迪 Joanna Cassidy
       约翰·威瑟斯朋 John Witherspoon
       杰瑞·霍尔 Jerry Hall
       米彻·佩勒吉 Mitch Pileggi
       John LaMotta
       卡丹·哈迪森 Kadeem Hardison
       斯姆比·卡哈利 Simbi Khali
       扎克·默凯 Zakes Mokae
       Ken Tipton
       Vickilyn Reynolds
       Wendy Robie
       W·厄尔·布朗 W. Earl Brown
       贾苏·加西亚 Jsu Garcia
       Ray Combs
◎标  签 吸血鬼 | 美国 | 笑剧 | 可骇 | 吸血鬼电影 | vampire | 1995 | 1990s
◎简  介


  可骇的吸血鬼一向是影坛极爱采用的题材,可是这个题材交到搞笑见长的艾迪墨菲手上,却有纷歧样的新意。"我"片中墨菲饰演能随意幻化表面的吸血鬼麦克斯,为了繁衍下一代,他来到天下之都-纽约,找寻合适的工具。女警丽塔是麦克斯看中的工具,他使出浑身解数展开追求,但却遭到各式阻止···。本片中墨菲变更了数种面孔、外型变化无穷,令观众不时辰刻都有惊奇,而吸血鬼题材历来所见的惊悚感,配上本片决心营建的笑剧特点,综合出一般又惊又喜的感受。
  1. Video
  2. ID                                       : 1
  3. Format                                   : AVC
  4. Format/Info                              : Advanced Video Codec
  5. Format profile                           : [email protected]
  6. Format settings                          : CABAC / 4 Ref Frames
  7. Format settings, CABAC                   : Yes
  8. Format settings, Reference frames        : 4 frames
  9. Codec ID                                 : V_MPEG4/ISO/AVC
  10. Duration                                 : 1 h 42 min
  11. Bit rate                                 : 10.3 Mb/s
  12. Width                                    : 1 920 pixels
  13. Height                                   : 1 080 pixels
  14. Display aspect ratio                     : 16:9
  15. Frame rate mode                          : Constant
  16. Frame rate                               : 23.976 (24000/1001/189150) FPS
  17. Color space                              : YUV
  18. Chroma subsampling                       : 4:2:0
  19. Bit depth                                : 8 bits
  20. Scan type                                : Progressive
  21. Bits/(Pixel*Frame)                       : 0.207
  22. Stream size                              : 7.33 GiB (71%)
  23. Writing library                          : x264 core 161 r3018 db0d417
  24. Encoding settings                        : cabac=1 / ref=4 / deblock=1:-3:-3 / analyse=0x3:0x133 / me=umh / subme=9 / psy=1 / psy_rd=1.00:0.00 / mixed_ref=1 / me_range=16 / chroma_me=1 / trellis=2 / 8x8dct=1 / cqm=0 / deadzone=21,11 / fast_pskip=1 / chroma_qp_offset=-2 / threads=18 / lookahead_threads=1 / sliced_threads=0 / nr=0 / decimate=1 / interlaced=0 / bluray_compat=0 / constrained_intra=0 / bframes=3 / b_pyramid=2 / b_adapt=2 / b_bias=0 / direct=3 / weightb=1 / open_gop=0 / weightp=2 / keyint=250 / keyint_min=23 / scenecut=40 / intra_refresh=0 / rc_lookahead=60 / rc=crf / mbtree=1 / crf=17.0 / qcomp=0.60 / qpmin=0 / qpmax=69 / qpstep=4 / ip_ratio=1.40 / aq=3:0.80
  25. Language                                 : English
  26. Default                                  : Yes
  27. Forced                                   : No
  28. Color range                              : Limited
  29. Matrix coefficients                      : BT.709

  30. Audio
  31. ID                                       : 2
  32. Format                                   : DTS XLL
  33. Format/Info                              : Digital Theater Systems
  34. Commercial name                          : DTS-HD Master Audio
  35. Codec ID                                 : A_DTS
  36. Duration                                 : 1 h 42 min
  37. Bit rate mode                            : Variable
  38. Bit rate                                 : 4 130 kb/s
  39. Channel(s)                               : 6 channels
  40. Channel layout                           : C L R Ls Rs LFE
  41. Sampling rate                            : 48.0 kHz
  42. Frame rate                               : 93.750 FPS (512 SPF)
  43. Bit depth                                : 24 bits
  44. Compression mode                         : Lossless
  45. Stream size                              : 2.94 GiB (28%)
  46. Title                                    : dtshd
  47. Language                                 : English
  48. Default                                  : Yes
  49. Forced                                   : No

  50. Text #1
  51. ID                                       : 3
  52. Format                                   : PGS
  53. Muxing mode                              : zlib
  54. Codec ID                                 : S_HDMV/PGS
  55. Codec ID/Info                            : Picture based subtitle format used on BDs/HD-DVDs
  56. Duration                                 : 1 h 36 min
  57. Bit rate                                 : 24.3 kb/s
  58. Count of elements                        : 2788
  59. Stream size                              : 16.8 MiB (0%)
  60. Title                                    : sub
  61. Language                                 : English
  62. Default                                  : No
  63. Forced                                   : No

  64. Text #2
  65. ID                                       : 4
  66. Format                                   : PGS
  67. Muxing mode                              : zlib
  68. Codec ID                                 : S_HDMV/PGS
  69. Codec ID/Info                            : Picture based subtitle format used on BDs/HD-DVDs
  70. Duration                                 : 1 h 41 min
  71. Bit rate                                 : 25.3 kb/s
  72. Count of elements                        : 3114
  73. Stream size                              : 18.3 MiB (0%)
  74. Title                                    : sub
  75. Language                                 : English
  76. Default                                  : No
  77. Forced                                   : No

  78. Text #3
  79. ID                                       : 5
  80. Format                                   : PGS
  81. Muxing mode                              : zlib
  82. Codec ID                                 : S_HDMV/PGS
  83. Codec ID/Info                            : Picture based subtitle format used on BDs/HD-DVDs
  84. Duration                                 : 1 h 36 min
  85. Bit rate                                 : 21.1 kb/s
  86. Count of elements                        : 2222
  87. Stream size                              : 14.6 MiB (0%)
  88. Title                                    : sub
  89. Language                                 : German
  90. Default                                  : No
  91. Forced                                   : No

  92. Text #4
  93. ID                                       : 6
  94. Format                                   : PGS
  95. Muxing mode                              : zlib
  96. Codec ID                                 : S_HDMV/PGS
  97. Codec ID/Info                            : Picture based subtitle format used on BDs/HD-DVDs
  98. Duration                                 : 1 h 36 min
  99. Bit rate                                 : 19.1 kb/s
  100. Count of elements                        : 2229
  101. Stream size                              : 13.2 MiB (0%)
  102. Title                                    : sub
  103. Language                                 : French
  104. Default                                  : No
  105. Forced                                   : No

  106. Menu
  107. 00:00:00.000                             : en:00:00:00.000
  108. 00:07:01.046                             : en:00:07:01.046
  109. 00:14:02.467                             : en:00:14:02.467
  110. 00:20:50.833                             : en:00:20:50.833
  111. 00:24:48.946                             : en:00:24:48.946
  112. 00:29:03.283                             : en:00:29:03.283
  113. 00:36:52.210                             : en:00:36:52.210
  114. 00:43:13.007                             : en:00:43:13.007
  115. 00:49:15.870                             : en:00:49:15.870
  116. 00:50:45.751                             : en:00:50:45.751
  117. 00:57:47.547                             : en:00:57:47.547
  118. 01:01:28.393                             : en:01:01:28.393
  119. 01:09:12.231                             : en:01:09:12.231
  120. 01:16:03.434                             : en:01:16:03.434
  121. 01:22:22.604                             : en:01:22:22.604
  122. 01:27:05.887                             : en:01:27:05.887
  123. 01:35:14.584                             : en:01:35:14.584
复制代码




                                       
                                       

                                       
                                       
                                       




回复

使用道具 举报

懒得打字嘛,点击右侧快捷回复 【右侧内容,后台自定义】
您需要登录后才可以回帖 登录 | 立即加入

本版积分规则

Archiver| |网站地图

Copyright © 2024 Comsenz Inc. Powered by 蓝光电影网

本站内容由用户自主分享和转载自互联网,转载目的在于传递更多信息,并不代表本网赞同其观点和对其真实性负责。

如有侵权、违反国家法律政策行为,请联系我们,我们会第一时间及时清除和处理!

举报反馈邮箱:4k1080.com@gmail.com

快速回复 返回顶部 返回列表