找回密码

查看: 1704|回复: 0

[惊悚] 妖夜凶灵/沙漠血吻 The.Forsaken.2001.UNCUT.1080p.BluRay.REMUX.AVC.DTS-HD.MA.5.1-FGT 22.24GB

[复制链接]
蓝光币
2039
发表于 2019-10-15 19:24:29 | 显示全部楼层 |阅读模式


◎译  名 妖夜凶灵 / 沙漠血吻(台)
◎片  名 The Forsaken
◎年  代 2001
◎产  地 美国
◎类  别 惊悚 / 可骇
◎语  言 英语
◎上映日期 2001-04-27
◎IMDb评分  5.3/10 from 7964 users
◎IMDb链接  http://www.imdb.com/title/tt0245120
◎豆瓣评分 5.3/10 from 44 users
◎豆瓣链接 https://movie.douban.com/subject/1295569/
◎片  长 90 分钟
◎导  演 J.S. Cardone
◎编  剧 J.S. Cardone
◎主  演 Kerr Smith
      Brendan Fehr
      Johnathon Schaech

◎标  签 吸血鬼 | 美国 | 惊悚 | 可骇 | Fehr,Brendan | 美国电影 | 电影 | 沙漠血吻
◎简  介  
  肖恩(克尔-史姑娘饰)一路从洛杉矶开车前往佛罗里达,去加入他姐姐的婚礼,顺便捎去一些Mercedes葡萄酒。他压根就没想到会碰上一位搭车者。从那时起,他的此次跨州观光便成了一场闻末所闻、布满血腥味的噩梦。
肖恩的这个新同伴尼克(布伦丹-费尔饰),看上去并不象是一个百无聊赖、漫无目标的观光者。他是一个“猎手”,一个四周游荡又无家可归的年轻人,他的猎物还是"血淋淋的"。在深夜无人的高速公路上,一群人凶残地吸食那些不幸的受害者。一句话,他们是吸血鬼。肖恩底子就没想到尼克正害着这类"吸血病",几个月以来尼克一向在跟踪着林林总总的人。肖恩与他的这位怪异的“副驾驶”上路以来,全部早晨他都稀里糊涂地停了一会又一会。看来,他将永久也加入不了他姐姐的婚礼了。
当肖恩和尼克搭载上了苍茫而惊魂未定的梅甘(伊莎贝拉-迈科饰)时,追杀的杀手们以为她死了就放过了她。梅甘不可是个受害者,她还是一小我类的诱饵。肖恩不竭被她的懦弱和美丽所吸引。当肖恩自己也被染上这类致命的病菌时,他的胜算更小了。尼克继续躲避肖恩的题目,但最初,经过一场剧烈的争辩,他被迫向肖恩率直了一切----能治愈他们"疾病"的唯一法子就是杀死吸血鬼的主体----阿谁吸血鬼团伙的邪恶头目基特(乔纳森-谢尔彻饰)。这是一场惊险的灭亡与时候的赛跑,假如他们失利的话,他们将与对手遭碰到一样的命运----永久成为那伙得寸进尺的不死鬼中的一员。
明天便能够是他们今生的最初一天了。
本片首要演员根基上来自客岁很卖座的校园可骇片《灭亡尽头(Final Destination)》。
  1. Video
  2. ID                                       : 1
  3. Format                                   : AVC
  4. Format/Info                              : Advanced Video Codec
  5. Format profile                           : [email protected]
  6. Format settings                          : CABAC / 4 Ref Frames
  7. Format settings, CABAC                   : Yes
  8. Format settings, Reference frames        : 4 frames
  9. Codec ID                                 : V_MPEG4/ISO/AVC
  10. Duration                                 : 1 h 30 min
  11. Bit rate mode                            : Constant
  12. Bit rate                                 : 30.0 Mb/s
  13. Width                                    : 1 920 pixels
  14. Height                                   : 1 080 pixels
  15. Display aspect ratio                     : 16:9
  16. Frame rate mode                          : Constant
  17. Frame rate                               : 23.976 (24000/1001) FPS
  18. Color space                              : YUV
  19. Chroma subsampling                       : 4:2:0
  20. Bit depth                                : 8 bits
  21. Scan type                                : Progressive
  22. Bits/(Pixel*Frame)                       : 0.603
  23. Stream size                              : 18.4 GiB (83%)
  24. Title                                    : The.Forsaken.2001.UNCUT.1080p.BluRay.REMUX.AVC.DTS-HD.MA.5.1-FGT
  25. Language                                 : English
  26. Default                                  : No
  27. Forced                                   : No
  28. Audio #1
  29. ID                                       : 2
  30. Format                                   : DTS XLL
  31. Format/Info                              : Digital Theater Systems
  32. Commercial name                          : DTS-HD Master Audio
  33. Codec ID                                 : A_DTS
  34. Duration                                 : 1 h 30 min
  35. Bit rate mode                            : Variable
  36. Bit rate                                 : 4 046 kb/s
  37. Channel(s)                               : 6 channels
  38. Channel layout                           : C L R Ls Rs LFE
  39. Sampling rate                            : 48.0 kHz
  40. Frame rate                               : 93.750 FPS (512 SPF)
  41. Bit depth                                : 24 bits
  42. Compression mode                         : Lossless
  43. Stream size                              : 2.56 GiB (12%)
  44. Title                                    : The.Forsaken.2001.UNCUT.1080p.BluRay.REMUX.AVC.DTS-HD.MA.5.1-FGT
  45. Language                                 : English
  46. Default                                  : Yes
  47. Forced                                   : No
  48. Audio #2
  49. ID                                       : 3
  50. Format                                   : DTS XLL
  51. Format/Info                              : Digital Theater Systems
  52. Commercial name                          : DTS-HD Master Audio
  53. Codec ID                                 : A_DTS
  54. Duration                                 : 1 h 30 min
  55. Bit rate mode                            : Variable
  56. Bit rate                                 : 1 998 kb/s
  57. Channel(s)                               : 2 channels
  58. Channel layout                           : L R
  59. Sampling rate                            : 48.0 kHz
  60. Frame rate                               : 93.750 FPS (512 SPF)
  61. Bit depth                                : 24 bits
  62. Compression mode                         : Lossless
  63. Stream size                              : 1.27 GiB (6%)
  64. Title                                    : The.Forsaken.2001.UNCUT.1080p.BluRay.REMUX.AVC.DTS-HD.MA.5.1-FGT
  65. Language                                 : English
  66. Default                                  : No
  67. Forced                                   : No
  68. Menu
  69. 00:00:00.000                             : de:Chapter 01
  70. 00:00:02.544                             : de:Chapter 02
  71. 00:08:00.521                             : de:Chapter 03
  72. 00:15:56.705                             : de:Chapter 04
  73. 00:24:00.272                             : de:Chapter 05
  74. 00:32:03.212                             : de:Chapter 06
  75. 00:40:00.815                             : de:Chapter 07
  76. 00:48:05.257                             : de:Chapter 08
  77. 00:55:57.103                             : de:Chapter 09
  78. 01:04:02.630                             : de:Chapter 10
  79. 01:12:03.819                             : de:Chapter 11
  80. 01:20:01.630                             : de:Chapter 12
  81. 01:28:09.784                             : de:Chapter 13
复制代码






                                       
                                       

                                       
                                       
                                       




回复

使用道具 举报

懒得打字嘛,点击右侧快捷回复 【右侧内容,后台自定义】
您需要登录后才可以回帖 登录 | 立即加入

本版积分规则

Archiver| |网站地图

Copyright © 2024 Comsenz Inc. Powered by 蓝光电影网

本站内容由用户自主分享和转载自互联网,转载目的在于传递更多信息,并不代表本网赞同其观点和对其真实性负责。

如有侵权、违反国家法律政策行为,请联系我们,我们会第一时间及时清除和处理!

举报反馈邮箱:4k1080.com@gmail.com

快速回复 返回顶部 返回列表