找回密码

查看: 1158|回复: 0

[动作] 复仇:爱的故事/复仇:一个爱情故事 Vengeance.A.Love.Story.2017.1080p.BluRay.x264-ROVERS 6.56GB

[复制链接]
蓝光币
2039
发表于 2019-7-9 15:31:56 | 显示全部楼层 |阅读模式


◎译  名 复仇:爱的故事 / 复仇:一个恋爱故事
◎片  名 Vengeance: A Love Story
◎年  代 2017
◎产  地 美国
◎类  别 行动 / 惊悚
◎语  言 英语
◎上映日期 2017-03-27(英国) / 2017-09-15(美国)
◎IMDb评分  5.2/10 from 5682 users
◎IMDb链接  http://www.imdb.com/title/tt5460530
◎豆瓣评分 6.2/10 from 655 users
◎豆瓣链接 https://movie.douban.com/subject/26724826/
◎片  长 99分钟
◎导  演 约翰尼·马丁 Johnny Martin
◎编  剧 约翰·曼凯维奇 John Mankiewicz / 乔伊思·卡罗尔·奥特兹 Joyce Carol Oates / 斯科特·温德豪泽 Scott Windhauser
◎主  演 尼古拉斯·凯奇 Nicolas Cage
      安娜·哈彻森 Anna Hutchison
      特丽莎·贝特曼 Talitha Bateman
      黛博拉·卡拉·安格 Deborah Kara Unger
      唐·约翰逊 Don Johnson
      约书亚·米克尔 Joshua Mikel
      罗科·纽金特 Rocco Nugent
      乔·欧科特贝克 Joe Ochterbeck
      卡特·伯奇 Carter Burch
      夏琳·蒂尔顿 Charlene Tilton
      迪克兰·图莱尼 Dikran Tulaine
      卡拉·弗劳尔斯 Kara Flowers
      吉米·冈萨雷斯 Jimmy Gonzales
      科里·斯科特·艾伦 Cory Scott Allen
      迈克·普涅夫斯基 Mike Pniewski
      凯蕾·里维拉 Kaleigh Rivera
      沙维尔·德克里 Xavier Declie
      迈克尔·帕帕约翰 Michael Papajohn

◎标  签 犯罪 | 美国 | 法令 | 2017 | 剧情 | 暴力 | 惊悚 | 强奸
◎简  介  
  缇娜(安娜·哈金森 Anna Hutchison 饰)带着十二岁的女儿贝斯(特丽莎·贝特曼 Talitha Bateman 饰)于半夜走在回家的路上,碰见了一群小混混,小混混们强横了缇娜,贝斯作为目击证人将施暴者们的面庞牢服膺在了心底。在法庭上,贝斯当庭指认了凶手,但是,被告方找来了一位毫无道德底线而且巧言如簧的律师,他们联手栽赃缇娜,颠却是非黑白,而法官也只想相安无事。
约翰(尼古拉斯·凯奇 Nicolas Cage 饰)是一位从业多年的老警官,虽然概况风光,但现实上他正在遭受人生的中年危机。缇娜的案件激倡议了约翰心里里熄灭已久的正义感,他决议自告奋勇帮助这对不幸的母女。
  1. Video
  2. ID                                       : 1
  3. Format                                   : AVC
  4. Format/Info                              : Advanced Video Codec
  5. Format profile                           : [email protected]
  6. Format settings, CABAC                   : Yes
  7. Format settings, ReFrames                : 4 frames
  8. Codec ID                                 : V_MPEG4/ISO/AVC
  9. Duration                                 : 1h 38mn
  10. Bit rate                                 : 8 881 Kbps
  11. Width                                    : 1 920 pixels
  12. Height                                   : 1 040 pixels
  13. Display aspect ratio                     : 1.85:1
  14. Frame rate mode                          : Constant
  15. Frame rate                               : 23.976 fps
  16. Color space                              : YUV
  17. Chroma subsampling                       : 4:2:0
  18. Bit depth                                : 8 bits
  19. Scan type                                : Progressive
  20. Bits/(Pixel*Frame)                       : 0.186
  21. Stream size                              : 6.12 GiB (93%)
  22. Writing library                          : x264 core 148 r2744 b97ae06
  23. Encoding settings                        : cabac=1 / ref=4 / deblock=1:0:0 / analyse=0x3:0x133 / me=umh / subme=7 / psy=1 / psy_rd=1.00:0.00 / mixed_ref=1 / me_range=16 / chroma_me=1 / trellis=1 / 8x8dct=1 / cqm=0 / deadzone=21,11 / fast_pskip=0 / chroma_qp_offset=-2 / threads=32 / lookahead_threads=5 / sliced_threads=0 / nr=0 / decimate=1 / interlaced=0 / bluray_compat=0 / constrained_intra=0 / bframes=3 / b_pyramid=2 / b_adapt=1 / b_bias=0 / direct=1 / weightb=1 / open_gop=0 / weightp=2 / keyint=250 / keyint_min=23 / scenecut=40 / intra_refresh=0 / rc_lookahead=40 / rc=2pass / mbtree=1 / bitrate=8881 / ratetol=1.0 / qcomp=0.60 / qpmin=0 / qpmax=69 / qpstep=4 / cplxblur=20.0 / qblur=0.5 / ip_ratio=1.40 / aq=1:1.00
  24. Language                                 : English
  25. Default                                  : Yes
  26. Forced                                   : No

  27. Audio
  28. ID                                       : 2
  29. Format                                   : AC-3
  30. Format/Info                              : Audio Coding 3
  31. Mode extension                           : CM (complete main)
  32. Format settings, Endianness              : Big
  33. Codec ID                                 : A_AC3
  34. Duration                                 : 1h 38mn
  35. Bit rate mode                            : Constant
  36. Bit rate                                 : 640 Kbps
  37. Channel(s)                               : 6 channels
  38. Channel positions                        : Front: L C R, Side: L R, LFE
  39. Sampling rate                            : 48.0 KHz
  40. Frame rate                               : 31.250 fps (1536 spf)
  41. Compression mode                         : Lossy
  42. Stream size                              : 451 MiB (7%)
  43. Language                                 : English
  44. Default                                  : Yes
  45. Forced                                   : No

  46. Menu
  47. 00:00:00.000                             : en:00:00:00.000
  48. 00:12:30.875                             : en:00:12:30.875
  49. 00:25:57.389                             : en:00:25:57.389
  50. 00:39:47.719                             : en:00:39:47.719
  51. 00:55:14.061                             : en:00:55:14.061
  52. 01:05:39.894                             : en:01:05:39.894
  53. 01:22:32.364                             : en:01:22:32.364
  54. 01:34:29.497                             : en:01:34:29.497
复制代码




                                       
                                       

                                       
                                       
                                       




回复

使用道具 举报

懒得打字嘛,点击右侧快捷回复 【右侧内容,后台自定义】
您需要登录后才可以回帖 登录 | 立即加入

本版积分规则

Archiver| |网站地图

Copyright © 2024 Comsenz Inc. Powered by 蓝光电影网

本站内容由用户自主分享和转载自互联网,转载目的在于传递更多信息,并不代表本网赞同其观点和对其真实性负责。

如有侵权、违反国家法律政策行为,请联系我们,我们会第一时间及时清除和处理!

举报反馈邮箱:4k1080.com@gmail.com

快速回复 返回顶部 返回列表