找回密码

查看: 1949|回复: 0

[惊悚] 荒蛮孤岛/荒岛 Wilderness.2006.1080p.BluRay.REMUX.AVC.DTS-HD.MA.5.1-FGT 21.45GB

[复制链接]
蓝光币
2039
发表于 2019-9-30 02:54:01 | 显示全部楼层 |阅读模式


◎译  名 荒蛮孤岛 / 荒岛 / 血肉森林
◎片  名 Wilderness
◎年  代 2006
◎产  地 英国
◎类  别 惊悚 / 可骇
◎语  言 英语
◎上映日期 2006-03-19
◎IMDb评分  6.1/10 from 8778 users
◎IMDb链接  http://www.imdb.com/title/tt0465670
◎豆瓣评分 5.6/10 from 151 users
◎豆瓣链接 https://movie.douban.com/subject/1858060/
◎片  长 93 分钟
◎导  演 迈克尔·巴塞特 Michael J. Bassett
◎编  剧 Dario Poloni
◎主  演 西恩·帕特维 Sean Pertwee
       阿里克斯·瑞德 Alex Reid
       托比·凯贝尔 Toby Kebbell
       斯蒂芬·怀特 Stephen Wight
       Luke Neal
       Ben McKay
       勒诺拉·克里奇洛 Lenora Crichlow
       Karly Greene
       亚当·迪康 Adam Deacon
       Richie Campbell
       Stephen Don
       John Travers
       George Shane
       Gordon Fulton
       John Rea

◎标  签 可骇 | 惊悚 | 英国 | 英国电影 | 血腥 | 我看过的电影 | 我看过的可骇电影 | 2006
◎简  介  
  A group of young offenders are delivered to an island
  for a week of character building exercises after one
  of their fellow inmates commits suicide.. It all goes
  horribly wrong when they realise that there′s someone
  else on the island who has a pack of dogs and a crossbow
  with which to hunt them down.
  1. Video
  2. ID                                       : 1
  3. Format                                   : AVC
  4. Format/Info                              : Advanced Video Codec
  5. Format profile                           : [email protected]
  6. Format settings                          : CABAC / 3 Ref Frames
  7. Format settings, CABAC                   : Yes
  8. Format settings, Reference frames        : 3 frames
  9. Codec ID                                 : V_MPEG4/ISO/AVC
  10. Duration                                 : 1 h 34 min
  11. Bit rate mode                            : Variable
  12. Bit rate                                 : 27.0 Mb/s
  13. Maximum bit rate                         : 35.0 Mb/s
  14. Width                                    : 1 920 pixels
  15. Height                                   : 1 080 pixels
  16. Display aspect ratio                     : 16:9
  17. Frame rate mode                          : Constant
  18. Frame rate                               : 23.976 (24000/1001) FPS
  19. Standard                                 : NTSC
  20. Color space                              : YUV
  21. Chroma subsampling                       : 4:2:0
  22. Bit depth                                : 8 bits
  23. Scan type                                : Progressive
  24. Bits/(Pixel*Frame)                       : 0.543
  25. Stream size                              : 17.4 GiB (81%)
  26. Title                                    : Wilderness.2006.1080p.BluRay.REMUX.AVC.DTS-HD.MA.5.1-FGT
  27. Writing library                          : x264pro - Adobe CS Exporter Plug-in
  28. Encoding settings                        : cabac=1 / ref=4 / deblock=1:-2:-2 / analyse=0x3:0x113 / me=umh / subme=8 / psy=1 / psy_rd=1.00:0.25 / mixed_ref=1 / me_range=16 / chroma_me=1 / trellis=1 / 8x8dct=1 / cqm=0 / deadzone=6,6 / fast_pskip=1 / chroma_qp_offset=-4 / threads=6 / lookahead_threads=1 / sliced_threads=0 / slices=4 / nr=0 / decimate=0 / interlaced=0 / bluray_compat=1 / constrained_intra=0 / bframes=3 / b_pyramid=1 / b_adapt=2 / b_bias=0 / direct=3 / weightb=1 / open_gop=0 / weightp=1 / keyint=24 / keyint_min=1 / scenecut=40 / intra_refresh=0 / rc_lookahead=24 / rc=abr / mbtree=1 / bitrate=27000 / ratetol=1.0 / qcomp=0.80 / qpmin=0 / qpmax=69 / qpstep=4 / vbv_maxrate=35000 / vbv_bufsize=30000 / nal_hrd=vbr / ip_ratio=1.10 / aq=1:1.00
  29. Language                                 : English
  30. Default                                  : No
  31. Forced                                   : No
  32. Color range                              : Limited
  33. Color primaries                          : BT.709
  34. Transfer characteristics                 : BT.709
  35. Matrix coefficients                      : BT.709
  36. Audio #1
  37. ID                                       : 2
  38. Format                                   : DTS XLL
  39. Format/Info                              : Digital Theater Systems
  40. Commercial name                          : DTS-HD Master Audio
  41. Codec ID                                 : A_DTS
  42. Duration                                 : 1 h 34 min
  43. Bit rate mode                            : Variable
  44. Bit rate                                 : 3 994 kb/s
  45. Channel(s)                               : 6 channels
  46. Channel layout                           : C L R Ls Rs LFE
  47. Sampling rate                            : 48.0 kHz
  48. Frame rate                               : 93.750 FPS (512 SPF)
  49. Bit depth                                : 24 bits
  50. Compression mode                         : Lossless
  51. Stream size                              : 2.63 GiB (12%)
  52. Title                                    : Wilderness.2006.1080p.BluRay.REMUX.AVC.DTS-HD.MA.5.1-FGT
  53. Language                                 : English
  54. Default                                  : Yes
  55. Forced                                   : No
  56. Audio #2
  57. ID                                       : 3
  58. Format                                   : DTS XLL
  59. Format/Info                              : Digital Theater Systems
  60. Commercial name                          : DTS-HD Master Audio
  61. Codec ID                                 : A_DTS
  62. Duration                                 : 1 h 34 min
  63. Bit rate mode                            : Variable
  64. Bit rate                                 : 2 095 kb/s
  65. Channel(s)                               : 2 channels
  66. Sampling rate                            : 48.0 kHz
  67. Frame rate                               : 93.750 FPS (512 SPF)
  68. Bit depth                                : 24 bits
  69. Compression mode                         : Lossless
  70. Stream size                              : 1.38 GiB (6%)
  71. Title                                    : Wilderness.2006.1080p.BluRay.REMUX.AVC.DTS-HD.MA.5.1-FGT
  72. Language                                 : English
  73. Default                                  : No
  74. Forced                                   : No
  75. Menu
  76. 00:00:00.000                             : en:Chapter 01
  77. 00:10:59.742                             : en:Chapter 02
  78. 00:23:08.845                             : en:Chapter 03
  79. 00:32:53.388                             : en:Chapter 04
  80. 00:42:56.323                             : en:Chapter 05
  81. 00:50:03.750                             : en:Chapter 06
  82. 00:58:50.777                             : en:Chapter 07
  83. 01:09:51.353                             : en:Chapter 08
  84. 01:20:38.375                             : en:Chapter 09
  85. 01:34:14.607                             : en:Chapter 10
复制代码






                                       
                                       

                                       
                                       
                                       




回复

使用道具 举报

懒得打字嘛,点击右侧快捷回复 【右侧内容,后台自定义】
您需要登录后才可以回帖 登录 | 立即加入

本版积分规则

Archiver| |网站地图

Copyright © 2024 Comsenz Inc. Powered by 蓝光电影网

本站内容由用户自主分享和转载自互联网,转载目的在于传递更多信息,并不代表本网赞同其观点和对其真实性负责。

如有侵权、违反国家法律政策行为,请联系我们,我们会第一时间及时清除和处理!

举报反馈邮箱:4k1080.com@gmail.com

快速回复 返回顶部 返回列表