找回密码

查看: 1577|回复: 0

[惊悚] 一次奇遇 A.Strange.Adventure.1956.1080p.BluRay.REMUX.AVC.DTS-HD.MA.2.0-FGT 15.75GB

[复制链接]
蓝光币
2048
发表于 2019-9-19 16:30:09 | 显示全部楼层 |阅读模式


◎译  名 一次奇遇
◎片  名 A Strange Adventure
◎年  代 1956
◎产  地 美国
◎类  别 惊悚 / 犯罪
◎语  言 英语
◎上映日期 1956
◎IMDb评分  5.6/10 from 92 users
◎IMDb链接  http://www.imdb.com/title/tt0049804
◎豆瓣评分 0/10 from 0 users
◎豆瓣链接 https://movie.douban.com/subject/5061302/
◎片  长 70 分钟
◎导  演 William Witney
◎编  剧 Houston Branch
◎标  签 黑色电影 | 美国电影 | 威廉.威特尼
◎简  介  
  暂无相关剧情先容
  1. Video
  2. ID                                       : 1
  3. Format                                   : AVC
  4. Format/Info                              : Advanced Video Codec
  5. Format profile                           : [email protected]
  6. Format settings                          : CABAC / 4 Ref Frames
  7. Format settings, CABAC                   : Yes
  8. Format settings, Reference frames        : 4 frames
  9. Codec ID                                 : V_MPEG4/ISO/AVC
  10. Duration                                 : 1 h 9 min
  11. Bit rate mode                            : Variable
  12. Bit rate                                 : 30.5 Mb/s
  13. Maximum bit rate                         : 38.0 Mb/s
  14. Width                                    : 1 920 pixels
  15. Height                                   : 1 080 pixels
  16. Display aspect ratio                     : 16:9
  17. Frame rate mode                          : Constant
  18. Frame rate                               : 23.976 (24000/1001) FPS
  19. Color space                              : YUV
  20. Chroma subsampling                       : 4:2:0
  21. Bit depth                                : 8 bits
  22. Scan type                                : Progressive
  23. Bits/(Pixel*Frame)                       : 0.613
  24. Stream size                              : 14.9 GiB (95%)
  25. Title                                    : A.Strange.Adventure.1956.1080p.BluRay.REMUX.AVC.DTS-HD.MA.2.0-FGT
  26. Language                                 : English
  27. Default                                  : No
  28. Forced                                   : No
  29. Audio #1
  30. ID                                       : 2
  31. Format                                   : DTS XLL
  32. Format/Info                              : Digital Theater Systems
  33. Commercial name                          : DTS-HD Master Audio
  34. Codec ID                                 : A_DTS
  35. Duration                                 : 1 h 9 min
  36. Bit rate mode                            : Variable
  37. Bit rate                                 : 1 559 kb/s
  38. Channel(s)                               : 2 channels
  39. Channel layout                           : L R
  40. Sampling rate                            : 48.0 kHz
  41. Frame rate                               : 93.750 FPS (512 SPF)
  42. Bit depth                                : 16 bits
  43. Compression mode                         : Lossless
  44. Stream size                              : 780 MiB (5%)
  45. Title                                    : A.Strange.Adventure.1956.1080p.BluRay.REMUX.AVC.DTS-HD.MA.2.0-FGT
  46. Language                                 : English
  47. Default                                  : Yes
  48. Forced                                   : No
  49. Audio #2
  50. ID                                       : 3
  51. Format                                   : AC-3
  52. Format/Info                              : Audio Coding 3
  53. Commercial name                          : Dolby Digital
  54. Codec ID                                 : A_AC3
  55. Duration                                 : 1 h 9 min
  56. Bit rate mode                            : Constant
  57. Bit rate                                 : 192 kb/s
  58. Channel(s)                               : 2 channels
  59. Channel layout                           : L R
  60. Sampling rate                            : 48.0 kHz
  61. Frame rate                               : 31.250 FPS (1536 SPF)
  62. Bit depth                                : 16 bits
  63. Compression mode                         : Lossy
  64. Stream size                              : 96.1 MiB (1%)
  65. Title                                    : A.Strange.Adventure.1956.1080p.BluRay.REMUX.AVC.DTS-HD.MA.2.0-FGT
  66. Language                                 : English
  67. Service kind                             : Complete Main
  68. Default                                  : No
  69. Forced                                   : No
  70. Menu
  71. 00:00:00.000                             : en:Chapter 00
  72. 00:09:27.567                             : en:Chapter 01
  73. 00:17:13.032                             : en:Chapter 02
  74. 00:27:14.007                             : en:Chapter 03
  75. 00:34:28.357                             : en:Chapter 04
  76. 00:42:27.002                             : en:Chapter 05
  77. 00:51:16.865                             : en:Chapter 06
  78. 00:58:16.701                             : en:Chapter 07
复制代码






                                       
                                       

                                       
                                       
                                       




回复

使用道具 举报

懒得打字嘛,点击右侧快捷回复 【右侧内容,后台自定义】
您需要登录后才可以回帖 登录 | 立即加入

本版积分规则

Archiver| |网站地图

Copyright © 2024 Comsenz Inc. Powered by 蓝光电影网

本站内容由用户自主分享和转载自互联网,转载目的在于传递更多信息,并不代表本网赞同其观点和对其真实性负责。

如有侵权、违反国家法律政策行为,请联系我们,我们会第一时间及时清除和处理!

举报反馈邮箱:4k1080.com@gmail.com

快速回复 返回顶部 返回列表