找回密码

查看: 1501|回复: 0

[剧情] 爱丽丝姨妈/消失的爱丽丝 What.Ever.Happened.to.Aunt.Alice.1969.1080p.BluRay.REMUX.AVC.DTS-HD.MA.2.0-FGT 18.19GB

[复制链接]
蓝光币
2039
发表于 2019-9-28 23:22:26 | 显示全部楼层 |阅读模式


◎译  名 爱丽丝阿姨 / 消失的爱丽丝
◎片  名 Whatever Happened to Aunt Alice?
◎年  代 1969
◎产  地 美国
◎类  别 剧情 / 悬疑 / 惊悚 / 可骇 / 犯罪
◎语  言 英语 / 德语
◎上映日期 1969-08-20
◎IMDb评分  6.9/10 from 1876 users
◎IMDb链接  http://www.imdb.com/title/tt0065206
◎豆瓣评分 7.4/10 from 182 users
◎豆瓣链接 https://movie.douban.com/subject/1293552/
◎片  长 101 分钟
◎导  演 Lee H. Katzin
◎编  剧 Theodore Apstein
◎主  演 Geraldine Page
       Ruth Gordon
       Rosemary Forsyth

◎标  签 悬疑 | 美国 | 犯罪 | 惊悚 | 美国电影 | 1960s | 1969 | 可骇
◎简  介  
  玛拉伯太太住在图森州,除了死去的丈夫留下的一笔债权,其他一无一切。但她倾慕虚荣,又好体面,在一样虚荣的亲戚眼前维系着自己的“贵族身份”。一天夜晚,她谋杀了自己的女管家,将其埋进自家花园的松树下面,掠夺了她的全数财富,尔后继续过上了骄奢淫逸的生活。
  迪莫克太太成为了玛拉伯太太的新管家,她言行锋利,行迹诡异,与玛拉伯太太的邻人的情人似乎又有着非比平常的关系,是为了查清真相,还是还有来头……
  1. Video
  2. ID                                       : 1
  3. Format                                   : AVC
  4. Format/Info                              : Advanced Video Codec
  5. Format profile                           : [email protected]
  6. Format settings                          : CABAC / 4 Ref Frames
  7. Format settings, CABAC                   : Yes
  8. Format settings, Reference frames        : 4 frames
  9. Codec ID                                 : V_MPEG4/ISO/AVC
  10. Duration                                 : 1 h 41 min
  11. Bit rate mode                            : Variable
  12. Bit rate                                 : 24.0 Mb/s
  13. Maximum bit rate                         : 38.0 Mb/s
  14. Width                                    : 1 920 pixels
  15. Height                                   : 1 080 pixels
  16. Display aspect ratio                     : 16:9
  17. Frame rate mode                          : Constant
  18. Frame rate                               : 23.976 (24000/1001) FPS
  19. Color space                              : YUV
  20. Chroma subsampling                       : 4:2:0
  21. Bit depth                                : 8 bits
  22. Scan type                                : Progressive
  23. Bits/(Pixel*Frame)                       : 0.482
  24. Stream size                              : 16.9 GiB (93%)
  25. Title                                    : What.Ever.Happened.to.Aunt.Alice.1969.1080p.BluRay.REMUX.AVC.DTS-HD.MA.2.0-FGT
  26. Language                                 : English
  27. Default                                  : No
  28. Forced                                   : No
  29. Audio #1
  30. ID                                       : 2
  31. Format                                   : DTS XLL
  32. Format/Info                              : Digital Theater Systems
  33. Commercial name                          : DTS-HD Master Audio
  34. Codec ID                                 : A_DTS
  35. Duration                                 : 1 h 41 min
  36. Bit rate mode                            : Variable
  37. Bit rate                                 : 1 557 kb/s
  38. Channel(s)                               : 2 channels
  39. Channel layout                           : L R
  40. Sampling rate                            : 48.0 kHz
  41. Frame rate                               : 93.750 FPS (512 SPF)
  42. Bit depth                                : 16 bits
  43. Compression mode                         : Lossless
  44. Stream size                              : 1.10 GiB (6%)
  45. Title                                    : What.Ever.Happened.to.Aunt.Alice.1969.1080p.BluRay.REMUX.AVC.DTS-HD.MA.2.0-FGT
  46. Language                                 : English
  47. Default                                  : Yes
  48. Forced                                   : No
  49. Audio #2
  50. ID                                       : 3
  51. Format                                   : AC-3
  52. Format/Info                              : Audio Coding 3
  53. Commercial name                          : Dolby Digital
  54. Codec ID                                 : A_AC3
  55. Duration                                 : 1 h 41 min
  56. Bit rate mode                            : Constant
  57. Bit rate                                 : 192 kb/s
  58. Channel(s)                               : 2 channels
  59. Channel layout                           : L R
  60. Sampling rate                            : 48.0 kHz
  61. Frame rate                               : 31.250 FPS (1536 SPF)
  62. Bit depth                                : 16 bits
  63. Compression mode                         : Lossy
  64. Stream size                              : 139 MiB (1%)
  65. Title                                    : What.Ever.Happened.to.Aunt.Alice.1969.1080p.BluRay.REMUX.AVC.DTS-HD.MA.2.0-FGT
  66. Language                                 : English
  67. Service kind                             : Complete Main
  68. Default                                  : No
  69. Forced                                   : No
  70. Text
  71. ID                                       : 4
  72. Format                                   : PGS
  73. Muxing mode                              : zlib
  74. Codec ID                                 : S_HDMV/PGS
  75. Codec ID/Info                            : Picture based subtitle format used on BDs/HD-DVDs
  76. Duration                                 : 1 h 39 min
  77. Bit rate                                 : 27.7 kb/s
  78. Count of elements                        : 2298
  79. Stream size                              : 19.8 MiB (0%)
  80. Title                                    : English-PGS
  81. Language                                 : English
  82. Default                                  : Yes
  83. Forced                                   : No
  84. Menu
  85. 00:00:00.000                             : en:Chapter 00
  86. 00:09:58.139                             : en:Chapter 01
  87. 00:22:34.603                             : en:Chapter 02
  88. 00:36:40.364                             : en:Chapter 03
  89. 00:53:05.182                             : en:Chapter 04
  90. 01:03:42.318                             : en:Chapter 05
  91. 01:16:07.813                             : en:Chapter 06
  92. 01:28:01.025                             : en:Chapter 07
复制代码






                                       
                                       

                                       
                                       
                                       




回复

使用道具 举报

懒得打字嘛,点击右侧快捷回复 【右侧内容,后台自定义】
您需要登录后才可以回帖 登录 | 立即加入

本版积分规则

Archiver| |网站地图

Copyright © 2024 Comsenz Inc. Powered by 蓝光电影网

本站内容由用户自主分享和转载自互联网,转载目的在于传递更多信息,并不代表本网赞同其观点和对其真实性负责。

如有侵权、违反国家法律政策行为,请联系我们,我们会第一时间及时清除和处理!

举报反馈邮箱:4k1080.com@gmail.com

快速回复 返回顶部 返回列表