找回密码

查看: 1267|回复: 0

[喜剧] 新婚燕尔/冷战夫妻 Barefoot.in.the.Park.1967.PROPER.1080p.BluRay.x264-USURY 10.70GB

[复制链接]
蓝光币
2048
发表于 2020-12-4 08:43:30 | 显示全部楼层 |阅读模式


◎译  名 新婚燕尔/冷战夫妻(港)/裸婚/裸足良伴
◎片  名 Barefoot in the Park
◎年  代 1967
◎产  地 美国
◎类  别 笑剧 / 恋爱
◎语  言 英语
◎上映日期 1967-12-28
◎IMDb评分  7/10 from 16719 users
◎IMDb链接  https://www.imdb.com/title/tt0061385/
◎豆瓣评分 7.3/10 from 665 users
◎豆瓣链接 https://movie.douban.com/subject/1300259/
◎片  长 106 分钟
◎导  演 吉恩·萨克斯 Gene Saks
◎编  剧 尼尔·西蒙 Neil Simon
◎主  演 罗伯特·雷德福 Robert Redford
       简·方达 Jane Fonda
       查尔斯·博耶 Charles Boyer
       弗里兹·费尔德 Fritz Feld
       多莉丝·罗伯茨 Doris Roberts
       詹姆斯·斯通 James Stone
       米尔翠德·纳特威克 Mildred Natwick
       Ted Hartley
       John Indrisano
       赫布·埃德尔曼 Herb Edelman
       Paul E. Burns
       比莉·伯德 Billie Bird
       Mabel Albertson
◎标  签 恋爱 | 笑剧 | 美国 | RobertRedford | 美国电影 | JaneFonda | 1967 | 1960s
◎简  介


  保罗(罗伯特·雷德福 Robert Redford 饰)是一位年轻的律师,他的性情很是的认真严厉,做什么工作都有板有眼,循规蹈矩。保罗的妻子科瑞(简·方达 Jane Fonda 饰)的性情和丈夫恰恰相反,历来奔放乐天的她喜好自在安闲的生活,脑壳里永久都塞满了希奇怪僻的突发奇想。
  
  夫妻两人居住在一栋没有电梯的公寓里,他们的邻人是一个名叫维克多(查尔斯·博耶 Charles Boyer 饰)的汉子,这个怪僻的汉子经常会来骚扰科瑞,对此,科瑞敢怒不敢言。性情上的庞大差别让一切人都感觉保罗和科瑞的这段婚姻不会有好的了局,但究竟真的如此吗?
◎获奖情况
  第40届奥斯卡金像奖 ?(1968)
  最好女配角(提名) 米尔翠德·纳特威克
  1. Video
  2. ID                                       : 1
  3. Format                                   : AVC
  4. Format/Info                              : Advanced Video Codec
  5. Format profile                           : [email protected]
  6. Format settings                          : CABAC / 4 Ref Frames
  7. Format settings, CABAC                   : Yes
  8. Format settings, Reference frames        : 4 frames
  9. Codec ID                                 : V_MPEG4/ISO/AVC
  10. Duration                                 : 1 h 46 min
  11. Bit rate                                 : 13.3 Mb/s
  12. Width                                    : 1 920 pixels
  13. Height                                   : 1 080 pixels
  14. Display aspect ratio                     : 16:9
  15. Frame rate mode                          : Constant
  16. Frame rate                               : 23.976 (24000/1001/189150) FPS
  17. Color space                              : YUV
  18. Chroma subsampling                       : 4:2:0
  19. Bit depth                                : 8 bits
  20. Scan type                                : Progressive
  21. Bits/(Pixel*Frame)                       : 0.267
  22. Stream size                              : 9.85 GiB (92%)
  23. Writing library                          : x264 core 161 r3027 4121277
  24. Encoding settings                        : cabac=1 / ref=4 / deblock=1:-3:-3 / analyse=0x3:0x133 / me=umh / subme=10 / psy=1 / psy_rd=1.00:0.15 / mixed_ref=1 / me_range=24 / chroma_me=1 / trellis=2 / 8x8dct=1 / cqm=0 / deadzone=21,11 / fast_pskip=1 / chroma_qp_offset=-3 / threads=18 / lookahead_threads=3 / sliced_threads=0 / nr=0 / decimate=1 / interlaced=0 / bluray_compat=0 / constrained_intra=0 / bframes=8 / b_pyramid=2 / b_adapt=2 / b_bias=0 / direct=3 / weightb=1 / open_gop=0 / weightp=2 / keyint=250 / keyint_min=23 / scenecut=40 / intra_refresh=0 / rc_lookahead=60 / rc=crf / mbtree=1 / crf=18.0 / qcomp=0.60 / qpmin=0 / qpmax=69 / qpstep=4 / ip_ratio=1.40 / aq=3:0.50
  25. Language                                 : English
  26. Default                                  : Yes
  27. Forced                                   : No

  28. Audio
  29. ID                                       : 2
  30. Format                                   : FLAC
  31. Format/Info                              : Free Lossless Audio Codec
  32. Codec ID                                 : A_FLAC
  33. Duration                                 : 1 h 46 min
  34. Bit rate mode                            : Variable
  35. Bit rate                                 : 1 088 kb/s
  36. Channel(s)                               : 2 channels
  37. Channel layout                           : L R
  38. Sampling rate                            : 48.0 kHz
  39. Frame rate                               : 11.719 FPS (4096 SPF)
  40. Bit depth                                : 24 bits
  41. Compression mode                         : Lossless
  42. Stream size                              : 825 MiB (8%)
  43. Writing library                          : libFLAC 1.2.1 (UTC 2007-09-17)
  44. Language                                 : English
  45. Default                                  : Yes
  46. Forced                                   : No

  47. Text #1
  48. ID                                       : 3
  49. Format                                   : UTF-8
  50. Codec ID                                 : S_TEXT/UTF8
  51. Codec ID/Info                            : UTF-8 Plain Text
  52. Duration                                 : 1 h 43 min
  53. Bit rate                                 : 66 b/s
  54. Count of elements                        : 1384
  55. Stream size                              : 50.2 KiB (0%)
  56. Title                                    : English
  57. Language                                 : English
  58. Default                                  : No
  59. Forced                                   : No

  60. Text #2
  61. ID                                       : 4
  62. Format                                   : PGS
  63. Muxing mode                              : zlib
  64. Codec ID                                 : S_HDMV/PGS
  65. Codec ID/Info                            : Picture based subtitle format used on BDs/HD-DVDs
  66. Duration                                 : 1 h 43 min
  67. Bit rate                                 : 11.9 kb/s
  68. Count of elements                        : 2768
  69. Stream size                              : 8.87 MiB (0%)
  70. Title                                    : English
  71. Language                                 : English
  72. Default                                  : No
  73. Forced                                   : No

  74. Text #3
  75. ID                                       : 5
  76. Format                                   : UTF-8
  77. Codec ID                                 : S_TEXT/UTF8
  78. Codec ID/Info                            : UTF-8 Plain Text
  79. Duration                                 : 1 h 45 min
  80. Bit rate                                 : 82 b/s
  81. Count of elements                        : 1909
  82. Stream size                              : 63.8 KiB (0%)
  83. Title                                    : English SDH
  84. Language                                 : English
  85. Default                                  : No
  86. Forced                                   : No

  87. Text #4
  88. ID                                       : 6
  89. Format                                   : PGS
  90. Muxing mode                              : zlib
  91. Codec ID                                 : S_HDMV/PGS
  92. Codec ID/Info                            : Picture based subtitle format used on BDs/HD-DVDs
  93. Duration                                 : 1 h 45 min
  94. Bit rate                                 : 15.7 kb/s
  95. Count of elements                        : 3818
  96. Stream size                              : 11.8 MiB (0%)
  97. Title                                    : English SDH
  98. Language                                 : English
  99. Default                                  : No
  100. Forced                                   : No

  101. Text #5
  102. ID                                       : 7
  103. Format                                   : UTF-8
  104. Codec ID                                 : S_TEXT/UTF8
  105. Codec ID/Info                            : UTF-8 Plain Text
  106. Duration                                 : 1 h 44 min
  107. Bit rate                                 : 64 b/s
  108. Count of elements                        : 1358
  109. Stream size                              : 49.3 KiB (0%)
  110. Title                                    : French
  111. Language                                 : French
  112. Default                                  : No
  113. Forced                                   : No

  114. Text #6
  115. ID                                       : 8
  116. Format                                   : PGS
  117. Muxing mode                              : zlib
  118. Codec ID                                 : S_HDMV/PGS
  119. Codec ID/Info                            : Picture based subtitle format used on BDs/HD-DVDs
  120. Duration                                 : 1 h 44 min
  121. Bit rate                                 : 10.7 kb/s
  122. Count of elements                        : 2717
  123. Stream size                              : 8.02 MiB (0%)
  124. Title                                    : French
  125. Language                                 : French
  126. Default                                  : No
  127. Forced                                   : No

  128. Text #7
  129. ID                                       : 9
  130. Format                                   : UTF-8
  131. Codec ID                                 : S_TEXT/UTF8
  132. Codec ID/Info                            : UTF-8 Plain Text
  133. Duration                                 : 1 h 44 min
  134. Bit rate                                 : 70 b/s
  135. Count of elements                        : 1370
  136. Stream size                              : 54.2 KiB (0%)
  137. Title                                    : German
  138. Language                                 : German
  139. Default                                  : No
  140. Forced                                   : No

  141. Text #8
  142. ID                                       : 10
  143. Format                                   : PGS
  144. Muxing mode                              : zlib
  145. Codec ID                                 : S_HDMV/PGS
  146. Codec ID/Info                            : Picture based subtitle format used on BDs/HD-DVDs
  147. Duration                                 : 1 h 44 min
  148. Bit rate                                 : 12.5 kb/s
  149. Count of elements                        : 2740
  150. Stream size                              : 9.30 MiB (0%)
  151. Title                                    : German
  152. Language                                 : German
  153. Default                                  : No
  154. Forced                                   : No

  155. Text #9
  156. ID                                       : 11
  157. Format                                   : PGS
  158. Muxing mode                              : zlib
  159. Codec ID                                 : S_HDMV/PGS
  160. Codec ID/Info                            : Picture based subtitle format used on BDs/HD-DVDs
  161. Duration                                 : 1 h 43 min
  162. Bit rate                                 : 10.2 kb/s
  163. Count of elements                        : 2636
  164. Stream size                              : 7.59 MiB (0%)
  165. Title                                    : Japanese
  166. Language                                 : Japanese
  167. Default                                  : No
  168. Forced                                   : No

  169. Menu
  170. 00:00:00.000                             : en:00:00:00.000
  171. 00:04:22.304                             : en:00:04:22.304
  172. 00:07:28.573                             : en:00:07:28.573
  173. 00:15:53.244                             : en:00:15:53.244
  174. 00:24:41.105                             : en:00:24:41.105
  175. 00:26:50.275                             : en:00:26:50.275
  176. 00:37:24.159                             : en:00:37:24.159
  177. 00:44:51.814                             : en:00:44:51.814
  178. 00:52:15.632                             : en:00:52:15.632
  179. 00:57:32.658                             : en:00:57:32.658
  180. 01:03:45.196                             : en:01:03:45.196
  181. 01:09:56.692                             : en:01:09:56.692
  182. 01:14:10.029                             : en:01:14:10.029
  183. 01:18:51.435                             : en:01:18:51.435
  184. 01:27:06.471                             : en:01:27:06.471
  185. 01:32:43.391                             : en:01:32:43.391
  186. 01:39:39.765                             : en:01:39:39.765
  187. 01:45:27.404                             : en:01:45:27.404
复制代码




                                       
                                       

                                       
                                       
                                       




回复

使用道具 举报

懒得打字嘛,点击右侧快捷回复 【右侧内容,后台自定义】
您需要登录后才可以回帖 登录 | 立即加入

本版积分规则

Archiver| |网站地图

Copyright © 2024 Comsenz Inc. Powered by 蓝光电影网

本站内容由用户自主分享和转载自互联网,转载目的在于传递更多信息,并不代表本网赞同其观点和对其真实性负责。

如有侵权、违反国家法律政策行为,请联系我们,我们会第一时间及时清除和处理!

举报反馈邮箱:4k1080.com@gmail.com

快速回复 返回顶部 返回列表