找回密码

查看: 1719|回复: 0

[惊悚] 和谐 Harmony.2018.1080p.BluRay.REMUX.AVC.DTS-HD.MA.5.1-FGT 19.80GB

[复制链接]
蓝光币
2048
发表于 2019-9-13 07:35:18 | 显示全部楼层 |阅读模式


◎译  名 和谐
◎片  名 Harmony
◎年  代 2018
◎产  地 澳大利亚
◎类  别 惊悚 / 奇异
◎语  言 英语
◎上映日期 2018-10-04(澳大利亚)
◎IMDb评分  5.3/10 from 452 users
◎IMDb链接  http://www.imdb.com/title/tt5583554
◎豆瓣评分 0/10 from 0 users
◎豆瓣链接 https://movie.douban.com/subject/34462401/
◎导  演 Corey Pearson
◎编  剧 Corey Pearson
◎主  演 杰奎琳·麦根斯 Jacqueline McKenzie
       埃蒙·法伦 Eamon Farren
       Tessa James
       Jerome Meyer
       Antoniette Iesue
       Jordan Cowan
       Salvatore Coco
       Monica Sayers
       Ines English

◎简  介  
  Born with an energetic power to absorb fear from others, a young woman must find love to balance the fears of her own and fight an ever growing storm of negative energy.
  1. Video
  2. ID                                       : 1
  3. Format                                   : AVC
  4. Format/Info                              : Advanced Video Codec
  5. Format profile                           : [email protected]
  6. Format settings                          : CABAC / 4 Ref Frames
  7. Format settings, CABAC                   : Yes
  8. Format settings, Reference frames        : 4 frames
  9. Codec ID                                 : V_MPEG4/ISO/AVC
  10. Duration                                 : 1 h 30 min
  11. Bit rate mode                            : Variable
  12. Bit rate                                 : 27.6 Mb/s
  13. Maximum bit rate                         : 35.0 Mb/s
  14. Width                                    : 1 920 pixels
  15. Height                                   : 1 080 pixels
  16. Display aspect ratio                     : 16:9
  17. Frame rate mode                          : Constant
  18. Frame rate                               : 23.976 (24000/1001) FPS
  19. Color space                              : YUV
  20. Chroma subsampling                       : 4:2:0
  21. Bit depth                                : 8 bits
  22. Scan type                                : Progressive
  23. Bits/(Pixel*Frame)                       : 0.555
  24. Stream size                              : 17.4 GiB (88%)
  25. Title                                    : Harmony.2018.1080p.BluRay.REMUX.AVC.DTS-HD.MA.5.1-FGT
  26. Language                                 : English
  27. Default                                  : No
  28. Forced                                   : No
  29. Color range                              : Limited
  30. Color primaries                          : BT.709
  31. Transfer characteristics                 : BT.709
  32. Matrix coefficients                      : BT.709
  33. Audio
  34. ID                                       : 2
  35. Format                                   : DTS XLL
  36. Format/Info                              : Digital Theater Systems
  37. Commercial name                          : DTS-HD Master Audio
  38. Codec ID                                 : A_DTS
  39. Duration                                 : 1 h 30 min
  40. Bit rate mode                            : Variable
  41. Bit rate                                 : 3 837 kb/s
  42. Channel(s)                               : 6 channels
  43. Channel layout                           : C L R Ls Rs LFE
  44. Sampling rate                            : 48.0 kHz
  45. Frame rate                               : 93.750 FPS (512 SPF)
  46. Bit depth                                : 24 bits
  47. Compression mode                         : Lossless
  48. Stream size                              : 2.42 GiB (12%)
  49. Title                                    : Harmony.2018.1080p.BluRay.REMUX.AVC.DTS-HD.MA.5.1-FGT
  50. Language                                 : English
  51. Default                                  : Yes
  52. Forced                                   : No
  53. Text
  54. ID                                       : 3
  55. Format                                   : PGS
  56. Muxing mode                              : zlib
  57. Codec ID                                 : S_HDMV/PGS
  58. Codec ID/Info                            : Picture based subtitle format used on BDs/HD-DVDs
  59. Duration                                 : 1 h 30 min
  60. Bit rate                                 : 24.6 kb/s
  61. Count of elements                        : 2446
  62. Stream size                              : 15.9 MiB (0%)
  63. Title                                    : English-PGS
  64. Language                                 : English
  65. Default                                  : Yes
  66. Forced                                   : No
  67. Menu
  68. 00:00:00.000                             : en:Chapter 01
  69. 00:09:46.043                             : en:Chapter 02
  70. 00:19:59.198                             : en:Chapter 03
  71. 00:30:10.099                             : en:Chapter 04
  72. 00:41:53.886                             : en:Chapter 05
  73. 00:50:18.598                             : en:Chapter 06
  74. 00:59:26.437                             : en:Chapter 07
  75. 01:10:15.753                             : en:Chapter 08
  76. 01:19:44.029                             : en:Chapter 09
  77. 01:27:26.824                             : en:Chapter 10
复制代码






                                       
                                       

                                       
                                       
                                       




回复

使用道具 举报

懒得打字嘛,点击右侧快捷回复 【右侧内容,后台自定义】
您需要登录后才可以回帖 登录 | 立即加入

本版积分规则

Archiver| |网站地图

Copyright © 2024 Comsenz Inc. Powered by 蓝光电影网

本站内容由用户自主分享和转载自互联网,转载目的在于传递更多信息,并不代表本网赞同其观点和对其真实性负责。

如有侵权、违反国家法律政策行为,请联系我们,我们会第一时间及时清除和处理!

举报反馈邮箱:4k1080.com@gmail.com

快速回复 返回顶部 返回列表