找回密码

查看: 1715|回复: 0

[惊悚] 夜幕猎人 Nomis.2018.1080p.BluRay.REMUX.AVC.DTS-HD.MA.TrueHD.5.1-FGT 25.97GB

[复制链接]
蓝光币
2048
发表于 2019-9-12 07:44:37 | 显示全部楼层 |阅读模式


◎译  名 夜幕猎人 / Nomis / 诺米斯
◎片  名 Night Hunter
◎年  代 2018
◎产  地 美国
◎类  别 惊悚
◎语  言 英语
◎上映日期 2018-09-28(洛杉矶电影节) / 2019-09-06(美国)
◎IMDb评分  6.1/10 from 802 users
◎IMDb链接  http://www.imdb.com/title/tt6533240
◎豆瓣评分 0/10 from 0 users
◎豆瓣链接 https://movie.douban.com/subject/26972266/
◎片  长 98分钟
◎导  演 大卫·雷蒙德 David Raymond
◎编  剧 大卫·雷蒙德 David Raymond
◎主  演 本·金斯利 Ben Kingsley
       亨利·卡维尔 Henry Cavill
       亚历珊德拉·达达里奥 Alexandra Daddario
       斯坦利·图齐 Stanley Tucci
       内森·菲利安 Nathan Fillion
       敏卡·凯利 Minka Kelly
       布莱登·佛雷切 Brendan Fletcher
       伊莲娜·琼斯 Eliana Jones
       Mpho Koaho
       Kristen Harris
       Lorraine James

◎标  签 亨利·卡维尔 | 犯罪 | 惊悚 | 美国 | HenryCavill | 2018 | 电影 | 亚历珊德拉·达达里奥
◎简  介  
  本·金斯利、亨利·卡维尔、亚历珊德拉·达达里奥加盟心理惊悚片[诺米斯](Nomis,暂译)。该片由大卫·雷蒙德自编自导,故事围绕一位美国差人追捕一位网上罪犯展开,随着案件的逐步深入,一切都朝着没法控制的偏向成长。2月底加拿大开机。
  1. Video
  2. ID                                       : 1
  3. Format                                   : AVC
  4. Format/Info                              : Advanced Video Codec
  5. Format profile                           : [email protected]
  6. Format settings                          : CABAC / 4 Ref Frames
  7. Format settings, CABAC                   : Yes
  8. Format settings, Reference frames        : 4 frames
  9. Codec ID                                 : V_MPEG4/ISO/AVC
  10. Duration                                 : 1 h 38 min
  11. Bit rate mode                            : Variable
  12. Bit rate                                 : 26.1 Mb/s
  13. Maximum bit rate                         : 35.0 Mb/s
  14. Width                                    : 1 920 pixels
  15. Height                                   : 1 080 pixels
  16. Display aspect ratio                     : 16:9
  17. Frame rate mode                          : Constant
  18. Frame rate                               : 23.976 (24000/1001) FPS
  19. Standard                                 : NTSC
  20. Color space                              : YUV
  21. Chroma subsampling                       : 4:2:0
  22. Bit depth                                : 8 bits
  23. Scan type                                : Progressive
  24. Bits/(Pixel*Frame)                       : 0.526
  25. Stream size                              : 18.1 GiB (70%)
  26. Title                                    : Nomis.2018.1080p.BluRay.REMUX.AVC.DTS-HD.MA.TrueHD.5.1-FGT
  27. Language                                 : English
  28. Default                                  : No
  29. Forced                                   : No
  30. Color range                              : Limited
  31. Color primaries                          : BT.709
  32. Transfer characteristics                 : BT.709
  33. Matrix coefficients                      : BT.709
  34. Audio #1
  35. ID                                       : 2
  36. Format                                   : MLP FBA
  37. Format/Info                              : Meridian Lossless Packing FBA
  38. Commercial name                          : Dolby TrueHD
  39. Codec ID                                 : A_TRUEHD
  40. Duration                                 : 1 h 38 min
  41. Bit rate mode                            : Variable
  42. Bit rate                                 : 3 191 kb/s
  43. Maximum bit rate                         : 5 043 kb/s
  44. Channel(s)                               : 6 channels
  45. Channel layout                           : L R C LFE Ls Rs
  46. Sampling rate                            : 48.0 kHz
  47. Frame rate                               : 1 200.000 FPS (40 SPF)
  48. Compression mode                         : Lossless
  49. Stream size                              : 2.21 GiB (8%)
  50. Title                                    : Nomis.2018.1080p.BluRay.REMUX.AVC.DTS-HD.MA.TrueHD.5.1-FGT
  51. Language                                 : English
  52. Default                                  : Yes
  53. Forced                                   : No
  54. Audio #2
  55. ID                                       : 3
  56. Format                                   : DTS XLL
  57. Format/Info                              : Digital Theater Systems
  58. Commercial name                          : DTS-HD Master Audio
  59. Codec ID                                 : A_DTS
  60. Duration                                 : 1 h 38 min
  61. Bit rate mode                            : Variable
  62. Bit rate                                 : 3 624 kb/s
  63. Channel(s)                               : 6 channels
  64. Channel layout                           : C L R Ls Rs LFE
  65. Sampling rate                            : 48.0 kHz
  66. Frame rate                               : 93.750 FPS (512 SPF)
  67. Bit depth                                : 24 bits
  68. Compression mode                         : Lossless
  69. Stream size                              : 2.51 GiB (10%)
  70. Title                                    : Nomis.2018.1080p.BluRay.REMUX.AVC.DTS-HD.MA.TrueHD.5.1-FGT
  71. Language                                 : English
  72. Default                                  : No
  73. Forced                                   : No
  74. Audio #3
  75. ID                                       : 4
  76. Format                                   : AC-3
  77. Format/Info                              : Audio Coding 3
  78. Commercial name                          : Dolby Digital
  79. Codec ID                                 : A_AC3
  80. Duration                                 : 1 h 38 min
  81. Bit rate mode                            : Constant
  82. Bit rate                                 : 640 kb/s
  83. Channel(s)                               : 6 channels
  84. Channel layout                           : L R C LFE Ls Rs
  85. Sampling rate                            : 48.0 kHz
  86. Frame rate                               : 31.250 FPS (1536 SPF)
  87. Bit depth                                : 16 bits
  88. Compression mode                         : Lossy
  89. Stream size                              : 453 MiB (2%)
  90. Title                                    : Nomis.2018.1080p.BluRay.REMUX.AVC.DTS-HD.MA.TrueHD.5.1-FGT
  91. Language                                 : English
  92. Service kind                             : Complete Main
  93. Default                                  : No
  94. Forced                                   : No
  95. Audio #4
  96. ID                                       : 5
  97. Format                                   : MLP FBA
  98. Format/Info                              : Meridian Lossless Packing FBA
  99. Commercial name                          : Dolby TrueHD
  100. Codec ID                                 : A_TRUEHD
  101. Duration                                 : 1 h 38 min
  102. Bit rate mode                            : Variable
  103. Bit rate                                 : 3 181 kb/s
  104. Maximum bit rate                         : 4 944 kb/s
  105. Channel(s)                               : 6 channels
  106. Channel layout                           : L R C LFE Ls Rs
  107. Sampling rate                            : 48.0 kHz
  108. Frame rate                               : 1 200.000 FPS (40 SPF)
  109. Compression mode                         : Lossless
  110. Stream size                              : 2.20 GiB (8%)
  111. Title                                    : Nomis.2018.1080p.BluRay.REMUX.AVC.DTS-HD.MA.TrueHD.5.1-FGT
  112. Language                                 : French
  113. Default                                  : No
  114. Forced                                   : No
  115. Audio #5
  116. ID                                       : 6
  117. Format                                   : AC-3
  118. Format/Info                              : Audio Coding 3
  119. Commercial name                          : Dolby Digital
  120. Codec ID                                 : A_AC3
  121. Duration                                 : 1 h 38 min
  122. Bit rate mode                            : Constant
  123. Bit rate                                 : 640 kb/s
  124. Channel(s)                               : 6 channels
  125. Channel layout                           : L R C LFE Ls Rs
  126. Sampling rate                            : 48.0 kHz
  127. Frame rate                               : 31.250 FPS (1536 SPF)
  128. Bit depth                                : 16 bits
  129. Compression mode                         : Lossy
  130. Stream size                              : 453 MiB (2%)
  131. Title                                    : Nomis.2018.1080p.BluRay.REMUX.AVC.DTS-HD.MA.TrueHD.5.1-FGT
  132. Language                                 : French
  133. Service kind                             : Complete Main
  134. Default                                  : No
  135. Forced                                   : No
  136. Text #1
  137. ID                                       : 7
  138. Format                                   : UTF-8
  139. Codec ID                                 : S_TEXT/UTF8
  140. Codec ID/Info                            : UTF-8 Plain Text
  141. Duration                                 : 1 h 33 min
  142. Bit rate                                 : 48 b/s
  143. Count of elements                        : 1279
  144. Stream size                              : 32.9 KiB (0%)
  145. Title                                    : English-SRT
  146. Language                                 : English
  147. Default                                  : Yes
  148. Forced                                   : No
  149. Text #2
  150. ID                                       : 8
  151. Format                                   : PGS
  152. Muxing mode                              : zlib
  153. Codec ID                                 : S_HDMV/PGS
  154. Codec ID/Info                            : Picture based subtitle format used on BDs/HD-DVDs
  155. Duration                                 : 1 h 33 min
  156. Bit rate                                 : 23.5 kb/s
  157. Count of elements                        : 2596
  158. Stream size                              : 15.7 MiB (0%)
  159. Title                                    : English-PGS
  160. Language                                 : English
  161. Default                                  : No
  162. Forced                                   : No
  163. Text #3
  164. ID                                       : 9
  165. Format                                   : PGS
  166. Muxing mode                              : zlib
  167. Codec ID                                 : S_HDMV/PGS
  168. Codec ID/Info                            : Picture based subtitle format used on BDs/HD-DVDs
  169. Duration                                 : 1 h 38 min
  170. Bit rate                                 : 27.0 kb/s
  171. Count of elements                        : 2496
  172. Stream size                              : 18.9 MiB (0%)
  173. Title                                    : French-PGS
  174. Language                                 : French
  175. Default                                  : No
  176. Forced                                   : No
  177. Text #4
  178. ID                                       : 10
  179. Format                                   : PGS
  180. Muxing mode                              : zlib
  181. Codec ID                                 : S_HDMV/PGS
  182. Codec ID/Info                            : Picture based subtitle format used on BDs/HD-DVDs
  183. Duration                                 : 1 h 32 min
  184. Bit rate                                 : 243 b/s
  185. Count of elements                        : 18
  186. Stream size                              : 165 KiB (0%)
  187. Title                                    : French-FORCED-PGS
  188. Language                                 : French
  189. Default                                  : No
  190. Forced                                   : No
  191. Menu
  192. 00:00:00.000                             : en:Chapter 01
  193. 00:13:20.299                             : en:Chapter 02
  194. 00:25:10.884                             : en:Chapter 03
  195. 00:40:01.107                             : en:Chapter 04
  196. 00:53:13.315                             : en:Chapter 05
  197. 01:08:14.507                             : en:Chapter 06
  198. 01:23:00.141                             : en:Chapter 07
  199. 01:33:35.651                             : en:Chapter 08
复制代码






                                       
                                       

                                       
                                       
                                       




相关帖子

回复

使用道具 举报

懒得打字嘛,点击右侧快捷回复 【右侧内容,后台自定义】
您需要登录后才可以回帖 登录 | 立即加入

本版积分规则

Archiver| |网站地图

Copyright © 2024 Comsenz Inc. Powered by 蓝光电影网

本站内容由用户自主分享和转载自互联网,转载目的在于传递更多信息,并不代表本网赞同其观点和对其真实性负责。

如有侵权、违反国家法律政策行为,请联系我们,我们会第一时间及时清除和处理!

举报反馈邮箱:4k1080.com@gmail.com

快速回复 返回顶部 返回列表