找回密码

查看: 1631|回复: 0

[惊悚] 单程杀机 One.Way.2006.1080p.BluRay.REMUX.AVC.DTS-HD.MA.5.1-FGT 23.30GB

[复制链接]
蓝光币
2048
发表于 2019-8-29 18:11:09 | 显示全部楼层 |阅读模式


◎译  名 单程杀机
◎片  名 One Way
◎年  代 2006
◎产  地 德国
◎类  别 惊悚 / 犯罪
◎语  言 英语 / 法语
◎上映日期 2006-10-21
◎IMDb评分  6.2/10 from 2961 users
◎IMDb链接  http://www.imdb.com/title/tt0484382
◎豆瓣评分 6.9/10 from 802 users
◎豆瓣链接 https://movie.douban.com/subject/2255893/
◎片  长 116 分钟
◎导  演 Reto Salimbeni
◎编  剧 Reto Salimbeni
◎主  演 Til Schweiger
       Lauren Lee Smith
       Sebastien Roberts
       Stefanie von Pfetten
       Michael Clarke Duncan
       Art Hindle
       Sonja Smits
       Eric Roberts
       Kenneth Welsh
       Ned Bellamy

◎标  签 犯罪 | 德国 | 人性 | 悬疑 | 美国 | 剧情 | 德国 蒂尔·斯威格 悬疑 | 德国电影
◎简  介  
  艾迪·施奈德(蒂尔·斯威格)行将与身价百万的未婚妻结婚,并由此提升为家属企业的合股人。谁知未婚妻的弟弟安东尼(塞巴斯蒂安·罗伯茨),天性残暴,居然强奸了艾迪最好的同性知己,安吉丽娜(劳伦·史姑娘)。看到好友被欺侮,艾迪愤慨的冲向安东尼,却没想到安东尼手里正握着艾迪不成告人的奥秘。面临爱人,面临好友,面临前途,艾迪会做出怎样的挑选,走出怎样的‘ONE WAY’?
  1. Video
  2. ID                                       : 1
  3. Format                                   : AVC
  4. Format/Info                              : Advanced Video Codec
  5. Format profile                           : [email protected]
  6. Format settings                          : CABAC / 4 Ref Frames
  7. Format settings, CABAC                   : Yes
  8. Format settings, Reference frames        : 4 frames
  9. Codec ID                                 : V_MPEG4/ISO/AVC
  10. Duration                                 : 1 h 56 min
  11. Bit rate mode                            : Variable
  12. Bit rate                                 : 25.0 Mb/s
  13. Maximum bit rate                         : 30.0 Mb/s
  14. Width                                    : 1 920 pixels
  15. Height                                   : 1 080 pixels
  16. Display aspect ratio                     : 16:9
  17. Frame rate mode                          : Constant
  18. Frame rate                               : 23.976 (24000/1001) FPS
  19. Standard                                 : Component
  20. Color space                              : YUV
  21. Chroma subsampling                       : 4:2:0
  22. Bit depth                                : 8 bits
  23. Scan type                                : Progressive
  24. Bits/(Pixel*Frame)                       : 0.503
  25. Stream size                              : 20.3 GiB (87%)
  26. Title                                    : One.Way.2006.1080p.BluRay.REMUX.AVC.DTS-HD.MA.5.1-FGT
  27. Writing library                          : x264 core 148
  28. Encoding settings                        : cabac=1 / ref=4 / deblock=1:0:0 / analyse=0x3:0x133 / me=umh / subme=9 / psy=1 / psy_rd=1.00:0.00 / mixed_ref=1 / me_range=24 / chroma_me=1 / trellis=2 / 8x8dct=1 / cqm=1 / deadzone=21,11 / fast_pskip=1 / chroma_qp_offset=-2 / threads=34 / lookahead_threads=2 / sliced_threads=0 / slices=4 / nr=0 / decimate=1 / interlaced=0 / minigop=1 / stitchable=1 / constrained_intra=0 / bframes=2 / b_pyramid=0 / b_adapt=2 / b_bias=0 / direct=3 / weightb=1 / open_gop=1 / weightp=1 / keyint=24 / keyint_min=1 / scenecut=40 / intra_refresh=0 / rc_lookahead=24 / rc=2pass / mbtree=1 / bitrate=25000 / ratetol=1.0 / qcomp=0.60 / qpmin=3 / qpmax=69 / qpstep=4 / cplxblur=20.0 / qblur=0.5 / vbv_maxrate=30000 / vbv_bufsize=30000 / nal_hrd=vbr / filler=0 / ip_ratio=1.40 / aq=1:1.00
  29. Language                                 : English
  30. Default                                  : No
  31. Forced                                   : No
  32. Color range                              : Limited
  33. Color primaries                          : BT.709
  34. Transfer characteristics                 : BT.709
  35. Matrix coefficients                      : BT.709
  36. Audio #1
  37. ID                                       : 2
  38. Format                                   : DTS XLL
  39. Format/Info                              : Digital Theater Systems
  40. Commercial name                          : DTS-HD Master Audio
  41. Codec ID                                 : A_DTS
  42. Duration                                 : 1 h 56 min
  43. Bit rate mode                            : Variable
  44. Bit rate                                 : 2 098 kb/s
  45. Channel(s)                               : 6 channels
  46. Channel layout                           : C L R Ls Rs LFE
  47. Sampling rate                            : 48.0 kHz
  48. Frame rate                               : 93.750 FPS (512 SPF)
  49. Bit depth                                : 16 bits
  50. Compression mode                         : Lossless
  51. Stream size                              : 1.71 GiB (7%)
  52. Title                                    : One.Way.2006.1080p.BluRay.REMUX.AVC.DTS-HD.MA.5.1-FGT
  53. Language                                 : English
  54. Default                                  : Yes
  55. Forced                                   : No
  56. Audio #2
  57. ID                                       : 3
  58. Format                                   : PCM
  59. Format settings                          : Little / Signed
  60. Codec ID                                 : A_PCM/INT/LIT
  61. Duration                                 : 1 h 56 min
  62. Bit rate mode                            : Constant
  63. Bit rate                                 : 1 536 kb/s
  64. Channel(s)                               : 2 channels
  65. Sampling rate                            : 48.0 kHz
  66. Frame rate                               : 30.000 FPS (1600 SPF)
  67. Bit depth                                : 16 bits
  68. Stream size                              : 1.25 GiB (5%)
  69. Title                                    : One.Way.2006.1080p.BluRay.REMUX.AVC.DTS-HD.MA.5.1-FGT
  70. Language                                 : English
  71. Default                                  : No
  72. Forced                                   : No
  73. Menu
  74. 00:00:00.000                             : en:Chapter 01
  75. 00:04:01.157                             : en:Chapter 02
  76. 00:12:54.774                             : en:Chapter 03
  77. 00:21:18.819                             : en:Chapter 04
  78. 00:29:27.015                             : en:Chapter 05
  79. 00:36:47.330                             : en:Chapter 06
  80. 00:43:50.711                             : en:Chapter 07
  81. 00:51:38.178                             : en:Chapter 08
  82. 01:01:10.750                             : en:Chapter 09
  83. 01:07:46.395                             : en:Chapter 10
  84. 01:14:25.586                             : en:Chapter 11
  85. 01:20:12.766                             : en:Chapter 12
  86. 01:30:28.005                             : en:Chapter 13
  87. 01:36:38.292                             : en:Chapter 14
  88. 01:41:43.847                             : en:Chapter 15
  89. 01:50:14.482                             : en:Chapter 16
复制代码






                                       
                                       

                                       
                                       
                                       




回复

使用道具 举报

懒得打字嘛,点击右侧快捷回复 【右侧内容,后台自定义】
您需要登录后才可以回帖 登录 | 立即加入

本版积分规则

Archiver| |网站地图

Copyright © 2024 Comsenz Inc. Powered by 蓝光电影网

本站内容由用户自主分享和转载自互联网,转载目的在于传递更多信息,并不代表本网赞同其观点和对其真实性负责。

如有侵权、违反国家法律政策行为,请联系我们,我们会第一时间及时清除和处理!

举报反馈邮箱:4k1080.com@gmail.com

快速回复 返回顶部 返回列表