找回密码

查看: 896|回复: 0

[动作] 攻壳机动队2.0 Ghost.In.The.Shell.2.0.2008.1080p.BluRay.x264-MOOVEE 6.56GB

[复制链接]
蓝光币
2048
发表于 2019-7-1 07:07:04 | 显示全部楼层 |阅读模式


◎译  名 攻壳灵活队2.0 / Ghost in the Shell 2.0 / K?kaku kid?tai 2.0
◎片  名 攻殻機動隊2.0
◎年  代 2008
◎产  地 日本
◎类  别 行动 / 科幻 / 动画
◎语  言 日语
◎上映日期 2008-07-12(日本)
◎IMDb评分  8.0/10 from 12757 users
◎IMDb链接  http://www.imdb.com/title/tt1260502
◎豆瓣评分 8.9/10 from 13231 users
◎豆瓣链接 https://movie.douban.com/subject/3142101/
◎片  长 83分钟
◎导  演 押井守 Mamoru Oshii
◎编  剧 伊藤和典 Kazunori It? / 士郎正宗 Masamune Shirow
◎主  演 田中敦子 Atsuko Tanaka
      大塚明夫 Akio ?tsuka
      山寺宏一 K?ichi Yamadera
      玄田哲章 Tessh? Genda
      山内雅人 Masato Yamanouchi
      小川真司 Shinji Ogawa
      榊原良子 Yoshiko Sakakibara
      山路和弘 Kazuhiro Yamaji
      千叶繁 Shigeru Chiba
      坂本真绫 Maaya Sakamoto

◎标  签 押井守 | 动画 | 日本 | 科幻 | 攻壳灵活队 | 日本动画 | 戏院版 | 2008
◎简  介  
  公元2029年,未来天下是高科技与信息化的天下。人类生死水平的进步陪伴着犯罪活动的高科技化,因而,专门弹压高科技犯罪的特别军队——公安9课建立了。队长草薙素子,作为一位满身“义体化”的女警,率领公安9课不竭展开行动。
是次,公安9课帮助公安6课奥秘处理了一位法式员外逃他国的麻烦杂事,又卷入传闻中的黑客“傀儡师”的犯罪事务。当行动堕入僵局之际,傀儡师居然不速之客,出现在公安9课!素子与她的战友们,不知不觉地被卷入了一场触及政府的诡计当中。
本作按照1995年动画电影《GHOST IN THE SHELL》改编,系剧情稳定、画面完全重制的作品。
  1. Video
  2. ID                                       : 1
  3. Format                                   : AVC
  4. Format/Info                              : Advanced Video Codec
  5. Format profile                           : [email protected]
  6. Format settings, CABAC                   : Yes
  7. Format settings, ReFrames                : 4 frames
  8. Codec ID                                 : V_MPEG4/ISO/AVC
  9. Duration                                 : 1h 23mn
  10. Bit rate                                 : 9 758 Kbps
  11. Width                                    : 1 920 pixels
  12. Height                                   : 1 080 pixels
  13. Display aspect ratio                     : 16:9
  14. Frame rate mode                          : Constant
  15. Frame rate                               : 23.976 (24000/1001) fps
  16. Color space                              : YUV
  17. Chroma subsampling                       : 4:2:0
  18. Bit depth                                : 8 bits
  19. Scan type                                : Progressive
  20. Bits/(Pixel*Frame)                       : 0.196
  21. Stream size                              : 5.66 GiB (86%)
  22. Writing library                          : x264 core 150 r2833kMod df79067
  23. Encoding settings                        : cabac=1 / ref=4 / deblock=1:0:0 / analyse=0x3:0x133 / me=umh / subme=8 / psy=1 / fade_compensate=0.00 / psy_rd=1.00:0.00 / mixed_ref=1 / me_range=16 / chroma_me=1 / trellis=1 / 8x8dct=1 / cqm=0 / deadzone=21,11 / fast_pskip=0 / chroma_qp_offset=-2 / threads=18 / lookahead_threads=3 / sliced_threads=0 / nr=0 / decimate=1 / interlaced=0 / bluray_compat=0 / constrained_intra=0 / bframes=3 / b_pyramid=2 / b_adapt=1 / b_bias=0 / direct=1 / weightb=1 / open_gop=0 / weightp=2 / keyint=250 / keyint_min=23 / scenecut=40 / intra_refresh=0 / rc_lookahead=40 / rc=2pass / mbtree=1 / bitrate=9758 / ratetol=1.0 / qcomp=0.60 / qpmin=0 / qpmax=69 / qpstep=4 / cplxblur=20.0 / qblur=0.5 / ip_ratio=1.40 / aq=1:1.00
  24. Language                                 : English
  25. Default                                  : Yes
  26. Forced                                   : No

  27. Audio #1
  28. ID                                       : 2
  29. Format                                   : DTS
  30. Format/Info                              : Digital Theater Systems
  31. Format profile                           : ES Discrete / Core
  32. Mode                                     : 16
  33. Format settings, Endianness              : Big
  34. Codec ID                                 : A_DTS
  35. Duration                                 : 1h 23mn
  36. Bit rate mode                            : Constant
  37. Bit rate                                 : 768 Kbps
  38. Channel(s)                               : 7 channels / 6 channels
  39. Channel positions                        : Front: L C R, Side: L R, Back: C, LFE / Front: L C R, Side: L R, LFE
  40. Sampling rate                            : 48.0 KHz
  41. Frame rate                               : 93.750 fps (512 spf)
  42. Bit depth                                : 24 bits
  43. Compression mode                         : Lossy
  44. Stream size                              : 457 MiB (7%)
  45. Title                                    : Japanese
  46. Language                                 : Japanese
  47. Default                                  : Yes
  48. Forced                                   : No

  49. Audio #2
  50. ID                                       : 3
  51. Format                                   : DTS
  52. Format/Info                              : Digital Theater Systems
  53. Format profile                           : ES Discrete / Core
  54. Mode                                     : 16
  55. Format settings, Endianness              : Big
  56. Codec ID                                 : A_DTS
  57. Duration                                 : 1h 23mn
  58. Bit rate mode                            : Constant
  59. Bit rate                                 : 768 Kbps
  60. Channel(s)                               : 7 channels / 6 channels
  61. Channel positions                        : Front: L C R, Side: L R, Back: C, LFE / Front: L C R, Side: L R, LFE
  62. Sampling rate                            : 48.0 KHz
  63. Frame rate                               : 93.750 fps (512 spf)
  64. Bit depth                                : 24 bits
  65. Compression mode                         : Lossy
  66. Stream size                              : 457 MiB (7%)
  67. Title                                    : English
  68. Language                                 : English
  69. Default                                  : No
  70. Forced                                   : No

  71. Text
  72. ID                                       : 4
  73. Format                                   : UTF-8
  74. Codec ID                                 : S_TEXT/UTF8
  75. Codec ID/Info                            : UTF-8 Plain Text
  76. Duration                                 : 1h 17mn
  77. Bit rate                                 : 58 bps
  78. Count of elements                        : 780
  79. Stream size                              : 33.2 KiB (0%)
  80. Title                                    : English
  81. Language                                 : English
  82. Default                                  : Yes
  83. Forced                                   : No

  84. Menu
  85. 00:00:00.000                             : en:00:00:00.000
  86. 00:04:28.143                             : en:00:04:28.143
  87. 00:11:24.934                             : en:00:11:24.934
  88. 00:17:59.036                             : en:00:17:59.036
  89. 00:26:06.815                             : en:00:26:06.815
  90. 00:36:06.664                             : en:00:36:06.664
  91. 00:43:08.252                             : en:00:43:08.252
  92. 00:49:59.914                             : en:00:49:59.914
  93. 00:55:22.444                             : en:00:55:22.444
  94. 01:00:21.243                             : en:01:00:21.243
  95. 01:06:43.374                             : en:01:06:43.374
  96. 01:13:54.639                             : en:01:13:54.639
复制代码




                                       
                                       

                                       
                                       
                                       




回复

使用道具 举报

懒得打字嘛,点击右侧快捷回复 【右侧内容,后台自定义】
您需要登录后才可以回帖 登录 | 立即加入

本版积分规则

Archiver| |网站地图

Copyright © 2024 Comsenz Inc. Powered by 蓝光电影网

本站内容由用户自主分享和转载自互联网,转载目的在于传递更多信息,并不代表本网赞同其观点和对其真实性负责。

如有侵权、违反国家法律政策行为,请联系我们,我们会第一时间及时清除和处理!

举报反馈邮箱:4k1080.com@gmail.com

快速回复 返回顶部 返回列表