找回密码

查看: 1217|回复: 0

[剧情] 我的天使 Angel.Of.Mine.2019.1080p.BluRay.REMUX.AVC.DTS-HD.MA.TrueHD.5.1-FGT 27.11GB

[复制链接]
蓝光币
2048
发表于 2019-9-26 06:13:05 | 显示全部楼层 |阅读模式


◎译  名 我的天使
◎片  名 Angel of Mine
◎年  代 2019
◎产  地 澳大利亚 / 美国
◎类  别 剧情 / 惊悚
◎语  言 英语
◎上映日期 2019-08-14(澳大利亚(墨尔本国际电影节)) / 2019-08-30(美国)
◎IMDb评分  7.8/10 from 221 users
◎IMDb链接  http://www.imdb.com/title/tt7058080
◎豆瓣评分 0/10 from 0 users
◎豆瓣链接 https://movie.douban.com/subject/30141343/
◎片  长 97分钟
◎导  演 金·法伦特 Kim Farrant
◎编  剧 卢克·戴维斯 Luke Davies / David Regal
◎主  演 卢克·伊万斯 Luke Evans
       劳米·拉佩斯 Noomi Rapace
       伊冯娜·斯特拉霍夫斯基 Yvonne Strahovski
       理查德·劳斯伯格 Richard Roxburgh
       芬恩·利特 Finn Little
       Rob Collins
       Rachel Gordon
       Tracy Mann
       Emily Gruhl
       Pip Miller
       Mirko Grillini
       Annika Whiteley
       Irene Chen
       Rebecca Bower
       Ayeshah Rose

◎标  签 翻拍 | 美国电影 | 改编 | 惊悚 | 悬疑 | 心理 | 卢克·伊万斯 | 劳米·拉佩斯
◎简  介  
  劳米·拉佩斯将主演心理剧情新片《我的天使》(Angel of Mine),金·法兰特(《陌生之地》)执导,卢克·戴维斯(《雄狮》)和大卫·里格(泽克和路德)编写剧本。基于2008年法国电影《天使的印记》,围绕一位母亲莉兹展开,几年前她落空了女儿,仍在应对悲剧带来的疼痛,她起头确信一位陌生人的女儿就是她的骨血。随着她对这一理论的痴迷过活益增加,她与这个小女孩的生活越发纠缠不清,落空了与现实的打仗。该片4月开拍。
  1. Video
  2. ID                                       : 1
  3. Format                                   : AVC
  4. Format/Info                              : Advanced Video Codec
  5. Format profile                           : [email protected]
  6. Format settings                          : CABAC / 4 Ref Frames
  7. Format settings, CABAC                   : Yes
  8. Format settings, Reference frames        : 4 frames
  9. Codec ID                                 : V_MPEG4/ISO/AVC
  10. Duration                                 : 1 h 38 min
  11. Bit rate mode                            : Variable
  12. Bit rate                                 : 30.0 Mb/s
  13. Maximum bit rate                         : 35.0 Mb/s
  14. Width                                    : 1 920 pixels
  15. Height                                   : 1 080 pixels
  16. Display aspect ratio                     : 16:9
  17. Frame rate mode                          : Constant
  18. Frame rate                               : 23.976 (24000/1001) FPS
  19. Standard                                 : NTSC
  20. Color space                              : YUV
  21. Chroma subsampling                       : 4:2:0
  22. Bit depth                                : 8 bits
  23. Scan type                                : Progressive
  24. Bits/(Pixel*Frame)                       : 0.603
  25. Stream size                              : 20.7 GiB (76%)
  26. Title                                    : Angel.Of.Mine.2019.1080p.BluRay.REMUX.AVC.DTS-HD.MA.TrueHD.5.1-FGT
  27. Language                                 : English
  28. Default                                  : No
  29. Forced                                   : No
  30. Color range                              : Limited
  31. Color primaries                          : BT.709
  32. Transfer characteristics                 : BT.709
  33. Matrix coefficients                      : BT.709
  34. Audio #1
  35. ID                                       : 2
  36. Format                                   : MLP FBA
  37. Format/Info                              : Meridian Lossless Packing FBA
  38. Commercial name                          : Dolby TrueHD
  39. Codec ID                                 : A_TRUEHD
  40. Duration                                 : 1 h 38 min
  41. Bit rate mode                            : Variable
  42. Bit rate                                 : 2 889 kb/s
  43. Maximum bit rate                         : 4 956 kb/s
  44. Channel(s)                               : 6 channels
  45. Channel layout                           : L R C LFE Ls Rs
  46. Sampling rate                            : 48.0 kHz
  47. Frame rate                               : 1 200.000 FPS (40 SPF)
  48. Compression mode                         : Lossless
  49. Stream size                              : 1.99 GiB (7%)
  50. Title                                    : Angel.Of.Mine.2019.1080p.BluRay.REMUX.AVC.DTS-HD.MA.TrueHD.5.1-FGT
  51. Language                                 : English
  52. Default                                  : Yes
  53. Forced                                   : No
  54. Audio #2
  55. ID                                       : 3
  56. Format                                   : DTS XLL
  57. Format/Info                              : Digital Theater Systems
  58. Commercial name                          : DTS-HD Master Audio
  59. Codec ID                                 : A_DTS
  60. Duration                                 : 1 h 38 min
  61. Bit rate mode                            : Variable
  62. Bit rate                                 : 3 337 kb/s
  63. Channel(s)                               : 6 channels
  64. Channel layout                           : C L R Ls Rs LFE
  65. Sampling rate                            : 48.0 kHz
  66. Frame rate                               : 93.750 FPS (512 SPF)
  67. Bit depth                                : 24 bits
  68. Compression mode                         : Lossless
  69. Stream size                              : 2.30 GiB (8%)
  70. Title                                    : Angel.Of.Mine.2019.1080p.BluRay.REMUX.AVC.DTS-HD.MA.TrueHD.5.1-FGT
  71. Language                                 : English
  72. Default                                  : No
  73. Forced                                   : No
  74. Audio #3
  75. ID                                       : 4
  76. Format                                   : MLP FBA
  77. Format/Info                              : Meridian Lossless Packing FBA
  78. Commercial name                          : Dolby TrueHD
  79. Codec ID                                 : A_TRUEHD
  80. Duration                                 : 1 h 38 min
  81. Bit rate mode                            : Variable
  82. Bit rate                                 : 2 989 kb/s
  83. Maximum bit rate                         : 4 983 kb/s
  84. Channel(s)                               : 6 channels
  85. Channel layout                           : L R C LFE Ls Rs
  86. Sampling rate                            : 48.0 kHz
  87. Frame rate                               : 1 200.000 FPS (40 SPF)
  88. Compression mode                         : Lossless
  89. Stream size                              : 2.06 GiB (8%)
  90. Title                                    : Angel.Of.Mine.2019.1080p.BluRay.REMUX.AVC.DTS-HD.MA.TrueHD.5.1-FGT
  91. Language                                 : French
  92. Default                                  : No
  93. Forced                                   : No
  94. Text #1
  95. ID                                       : 5
  96. Format                                   : UTF-8
  97. Codec ID                                 : S_TEXT/UTF8
  98. Codec ID/Info                            : UTF-8 Plain Text
  99. Duration                                 : 1 h 31 min
  100. Bit rate                                 : 41 b/s
  101. Count of elements                        : 952
  102. Stream size                              : 27.5 KiB (0%)
  103. Title                                    : English-SRT
  104. Language                                 : English
  105. Default                                  : Yes
  106. Forced                                   : No
  107. Text #2
  108. ID                                       : 6
  109. Format                                   : PGS
  110. Muxing mode                              : zlib
  111. Codec ID                                 : S_HDMV/PGS
  112. Codec ID/Info                            : Picture based subtitle format used on BDs/HD-DVDs
  113. Duration                                 : 1 h 31 min
  114. Bit rate                                 : 21.6 kb/s
  115. Count of elements                        : 2156
  116. Stream size                              : 14.1 MiB (0%)
  117. Title                                    : English-PGS
  118. Language                                 : English
  119. Default                                  : No
  120. Forced                                   : No
  121. Text #3
  122. ID                                       : 7
  123. Format                                   : PGS
  124. Muxing mode                              : zlib
  125. Codec ID                                 : S_HDMV/PGS
  126. Codec ID/Info                            : Picture based subtitle format used on BDs/HD-DVDs
  127. Duration                                 : 1 h 36 min
  128. Bit rate                                 : 21.6 kb/s
  129. Count of elements                        : 2256
  130. Stream size                              : 14.9 MiB (0%)
  131. Title                                    : French-PGS
  132. Language                                 : French
  133. Default                                  : No
  134. Forced                                   : No
  135. Text #4
  136. ID                                       : 8
  137. Format                                   : PGS
  138. Muxing mode                              : zlib
  139. Codec ID                                 : S_HDMV/PGS
  140. Codec ID/Info                            : Picture based subtitle format used on BDs/HD-DVDs
  141. Duration                                 : 1 h 10 min
  142. Bit rate                                 : 144 b/s
  143. Count of elements                        : 10
  144. Stream size                              : 74.6 KiB (0%)
  145. Title                                    : French-FORCED-PGS
  146. Language                                 : French
  147. Default                                  : No
  148. Forced                                   : No
  149. Menu
  150. 00:00:00.000                             : en:Chapter 01
  151. 00:12:43.554                             : en:Chapter 02
  152. 00:26:41.182                             : en:Chapter 03
  153. 00:41:32.615                             : en:Chapter 04
  154. 00:53:50.769                             : en:Chapter 05
  155. 01:06:20.768                             : en:Chapter 06
  156. 01:19:07.743                             : en:Chapter 07
  157. 01:34:12.063                             : en:Chapter 08
复制代码






                                       
                                       

                                       
                                       
                                       




回复

使用道具 举报

懒得打字嘛,点击右侧快捷回复 【右侧内容,后台自定义】
您需要登录后才可以回帖 登录 | 立即加入

本版积分规则

Archiver| |网站地图

Copyright © 2024 Comsenz Inc. Powered by 蓝光电影网

本站内容由用户自主分享和转载自互联网,转载目的在于传递更多信息,并不代表本网赞同其观点和对其真实性负责。

如有侵权、违反国家法律政策行为,请联系我们,我们会第一时间及时清除和处理!

举报反馈邮箱:4k1080.com@gmail.com

快速回复 返回顶部 返回列表