找回密码

查看: 1753|回复: 0

[惊悚] 扭曲 Distorted.2018.1080p.BluRay.REMUX.AVC.DTS-HD.MA.5.1-FGT 12.38GB

[复制链接]
蓝光币
2039
发表于 2019-8-18 01:55:00 | 显示全部楼层 |阅读模式


◎译  名 扭曲 / Distortion
◎片  名 Distorted
◎年  代 2018
◎产  地 加拿大
◎类  别 惊悚
◎语  言 英语
◎上映日期 2018-05-31(阿联酋)
◎IMDb评分  5.2/10 from 5348 users
◎IMDb链接  http://www.imdb.com/title/tt6143850
◎豆瓣评分 4.2/10 from 243 users
◎豆瓣链接 https://movie.douban.com/subject/27053947/
◎片  长 86分钟
◎导  演 罗布·W·金 Rob W. King
◎编  剧 Arne Olsen
◎主  演 布莱登·佛雷切 Brendan Fletcher
       克里斯蒂娜·里奇 Christina Ricci
       约翰·库萨克 John Cusack
       奥利弗·莱斯 Oliver Rice
       斯科特·奥林克 Scott Olynek
       朱丽娅·马克斯维尔 Julia Maxwell
       Angela Quinn
       Nicole Anthony

◎标  签 悬疑 | 惊悚 | 心理 | 加拿大 | 2018 | 科幻 | 诡计论 | 美国
◎简  介  
  克里斯蒂娜·里奇、约翰·库萨克、布莱登·佛雷切将参演[扭曲](Distorted,暂译),罗布·W·金执导,阿恩·奥尔森编剧。克里斯蒂娜·里奇饰演得了躁郁症的艺术家劳伦·柯伦,其饱受记忆熬煎之苦,同时担忧人身平安。片中库萨克饰演对收集诡计颇感爱好的记者,他将帮助劳伦。影片行将于加拿大开拍。
  1. Video
  2. ID                                       : 1
  3. Format                                   : AVC
  4. Format/Info                              : Advanced Video Codec
  5. Format profile                           : [email protected]
  6. Format settings                          : CABAC / 2 Ref Frames
  7. Format settings, CABAC                   : Yes
  8. Format settings, Reference frames        : 2 frames
  9. Codec ID                                 : V_MPEG4/ISO/AVC
  10. Duration                                 : 1 h 26 min
  11. Bit rate mode                            : Variable
  12. Bit rate                                 : 18.8 Mb/s
  13. Maximum bit rate                         : 30.2 Mb/s
  14. Width                                    : 1 920 pixels
  15. Height                                   : 1 080 pixels
  16. Display aspect ratio                     : 16:9
  17. Frame rate mode                          : Constant
  18. Frame rate                               : 23.976 (24000/1001) FPS
  19. Color space                              : YUV
  20. Chroma subsampling                       : 4:2:0
  21. Bit depth                                : 8 bits
  22. Scan type                                : Progressive
  23. Bits/(Pixel*Frame)                       : 0.378
  24. Stream size                              : 11.4 GiB (92%)
  25. Title                                    : Distorted.2018.1080p.BluRay.REMUX.AVC.DTS-HD.MA.5.1-FGT
  26. Language                                 : English
  27. Default                                  : No
  28. Forced                                   : No
  29. Audio
  30. ID                                       : 2
  31. Format                                   : DTS XLL
  32. Format/Info                              : Digital Theater Systems
  33. Commercial name                          : DTS-HD Master Audio
  34. Codec ID                                 : A_DTS
  35. Duration                                 : 1 h 26 min
  36. Bit rate mode                            : Variable
  37. Bit rate                                 : 1 651 kb/s
  38. Channel(s)                               : 6 channels
  39. Channel layout                           : C L R Ls Rs LFE
  40. Sampling rate                            : 48.0 kHz
  41. Frame rate                               : 93.750 FPS (512 SPF)
  42. Bit depth                                : 16 bits
  43. Compression mode                         : Lossless
  44. Stream size                              : 1 023 MiB (8%)
  45. Title                                    : Distorted.2018.1080p.BluRay.REMUX.AVC.DTS-HD.MA.5.1-FGT
  46. Language                                 : English
  47. Default                                  : Yes
  48. Forced                                   : No
  49. Menu
  50. 00:00:00.000                             : en:Chapter 01
  51. 00:04:56.254                             : en:Chapter 02
  52. 00:15:55.412                             : en:Chapter 03
  53. 00:24:43.398                             : en:Chapter 04
  54. 00:35:02.183                             : en:Chapter 05
  55. 00:43:30.316                             : en:Chapter 06
  56. 00:50:58.555                             : en:Chapter 07
  57. 00:55:12.475                             : en:Chapter 08
  58. 01:04:20.857                             : en:Chapter 09
  59. 01:10:04.200                             : en:Chapter 10
  60. 01:15:09.838                             : en:Chapter 11
  61. 01:22:20.644                             : en:Chapter 12
复制代码






                                       
                                       

                                       
                                       
                                       




回复

使用道具 举报

懒得打字嘛,点击右侧快捷回复 【右侧内容,后台自定义】
您需要登录后才可以回帖 登录 | 立即加入

本版积分规则

Archiver| |网站地图

Copyright © 2024 Comsenz Inc. Powered by 蓝光电影网

本站内容由用户自主分享和转载自互联网,转载目的在于传递更多信息,并不代表本网赞同其观点和对其真实性负责。

如有侵权、违反国家法律政策行为,请联系我们,我们会第一时间及时清除和处理!

举报反馈邮箱:4k1080.com@gmail.com

快速回复 返回顶部 返回列表