找回密码

查看: 1134|回复: 0

[其他] 鬼上身 The.Appearing.2014.1080p.BluRay.x264.DTS-FGT 5.46GB

[复制链接]
蓝光币
2048
发表于 2020-9-18 17:47:21 | 显示全部楼层 |阅读模式


◎译  名 鬼上身
◎片  名 The Appearing
◎年  代 2014
◎产  地 美国
◎类  别 悬疑 / 惊悚 / 可骇
◎语  言 英语
◎上映日期 2014-03-25
◎IMDb评分  3/10 from 1364 users
◎IMDb链接  https://www.imdb.com/title/tt2290709/
◎豆瓣评分 2.9/10 from 234 users
◎豆瓣链接 https://movie.douban.com/subject/25752202/
◎片  长 92分钟
◎导  演 达里克·盖茨 Daric Gates
◎编  剧 达里克·盖茨 Daric Gates
◎主  演 威尔·华莱士 Will Wallace
       迪恩·凯恩 Dean Cain
       唐·斯瓦泽 Don Swayze
       昆东·亚伦 Quinton Aaron
       Wolfgang Bodison
       克丽丝·德斯金斯 Kris Deskins
       Emily Brooks
◎标  签 可骇 | 惊悚 | 美国 | 我看过的英语电影 | 我看过的可骇电影 | 我看过的电影 | 2014 | 我看过的惊悚电影
◎简  介


  数月前的一场变乱,让侦察迈克尔(威尔·华莱士 Will Wallace 饰)及其妻子瑞秋(艾米丽·布鲁克斯 Emily Brooks 饰)落空了他们心爱的女儿。在此以后,夫妻关系相持不下,低至冰点,许是为了重获进步的勇气,他们从喧哗的旧金山搬到了为山岭森林环抱的格林伍德湾小镇,迈克尔则在当地谋得差人的职务。刚刚搬来的第二天,一路失落案便牵扯了迈克尔的履历。小镇上有一栋历史悠久的屋子,传闻在20世纪80年月,名叫玛莎的女子被魔鬼附体,酿成悲剧,今后这栋屋子就成了著名的鬼屋。胆小包天的青年男女内森(Payton Wood 饰)和女友苏茜(Abigail Cooper 饰)趁夜潜入时代,可是终极苏茜着落不明,内森也变得呆呆傻傻。迈克尔想方想法查明真相,而无意间接近了鬼屋的瑞秋似乎也进入一个可骇而可怕的黑洞。
  
  小镇的奥秘,昭然若现……
  1. Video
  2. ID                                       : 1
  3. Format                                   : AVC
  4. Format/Info                              : Advanced Video Codec
  5. Format profile                           : [email protected]
  6. Format settings, CABAC                   : Yes
  7. Format settings, ReFrames                : 3 frames
  8. Codec ID                                 : V_MPEG4/ISO/AVC
  9. Duration                                 : 1h 36mn
  10. Bit rate                                 : 6 434 Kbps
  11. Nominal bit rate                         : 6 954 Kbps
  12. Width                                    : 1 920 pixels
  13. Height                                   : 1 080 pixels
  14. Display aspect ratio                     : 16:9
  15. Frame rate mode                          : Constant
  16. Frame rate                               : 23.976 (24000/1001) fps
  17. Color space                              : YUV
  18. Chroma subsampling                       : 4:2:0
  19. Bit depth                                : 8 bits
  20. Scan type                                : Progressive
  21. Bits/(Pixel*Frame)                       : 0.129
  22. Stream size                              : 4.34 GiB (79%)
  23. Writing library                          : x264 core 140 r2377 1ca7bb9
  24. Encoding settings                        : cabac=1 / ref=4 / deblock=1:-3:-3 / analyse=0x3:0x133 / me=umh / subme=7 / psy=1 / psy_rd=1.00:0.15 / mixed_ref=1 / me_range=16 / chroma_me=1 / trellis=2 / 8x8dct=1 / cqm=0 / deadzone=21,11 / fast_pskip=1 / chroma_qp_offset=-3 / threads=12 / lookahead_threads=3 / sliced_threads=0 / nr=0 / decimate=1 / interlaced=0 / bluray_compat=0 / constrained_intra=0 / bframes=5 / b_pyramid=1 / b_adapt=2 / b_bias=0 / direct=1 / weightb=1 / open_gop=0 / weightp=2 / keyint=240 / keyint_min=23 / scenecut=40 / intra_refresh=0 / rc_lookahead=30 / rc=2pass / mbtree=1 / bitrate=6954 / ratetol=1.0 / qcomp=0.60 / qpmin=0 / qpmax=69 / qpstep=4 / cplxblur=20.0 / qblur=0.5 / ip_ratio=1.40 / aq=1:1.00
  25. Language                                 : English
  26. Default                                  : Yes
  27. Forced                                   : No
  28. Audio
  29. ID                                       : 2
  30. Format                                   : DTS
  31. Format/Info                              : Digital Theater Systems
  32. Mode                                     : 16
  33. Format settings, Endianness              : Big
  34. Codec ID                                 : A_DTS
  35. Duration                                 : 1h 36mn
  36. Bit rate mode                            : Constant
  37. Bit rate                                 : 1 509 Kbps
  38. Channel(s)                               : 6 channels
  39. Channel positions                        : Front: L C R, Side: L R, LFE
  40. Sampling rate                            : 48.0 KHz
  41. Frame rate                               : 93.750 fps (512 spf)
  42. Bit depth                                : 16 bits
  43. Compression mode                         : Lossy
  44. Stream size                              : 1.02 GiB (19%)
  45. Language                                 : English
  46. Default                                  : No
  47. Forced                                   : No
  48. Menu
  49. 00:00:00.000                             : en:Chapter 01
  50. 00:10:14.655                             : en:Chapter 02
  51. 00:22:45.322                             : en:Chapter 03
  52. 00:34:36.657                             : en:Chapter 04
  53. 00:47:23.423                             : en:Chapter 05
  54. 00:59:06.376                             : en:Chapter 06
  55. 01:11:33.080                             : en:Chapter 07
  56. 01:21:00.355                             : en:Chapter 08
  57. 01:28:20.545                             : en:Chapter 09
  58. 01:31:30.485                             : en:Chapter 10
复制代码









                                       
                                       

                                       
                                       
                                       




回复

使用道具 举报

懒得打字嘛,点击右侧快捷回复 【右侧内容,后台自定义】
您需要登录后才可以回帖 登录 | 立即加入

本版积分规则

Archiver| |网站地图

Copyright © 2024 Comsenz Inc. Powered by 蓝光电影网

本站内容由用户自主分享和转载自互联网,转载目的在于传递更多信息,并不代表本网赞同其观点和对其真实性负责。

如有侵权、违反国家法律政策行为,请联系我们,我们会第一时间及时清除和处理!

举报反馈邮箱:4k1080.com@gmail.com

快速回复 返回顶部 返回列表