找回密码

查看: 1394|回复: 0

[动作] 海军陆战队员4/怒火反击4 The.Marine.4.Moving.Target.2015.1080p.BluRay.x264-ROVERS 6.55GB

[复制链接]
蓝光币
2039
发表于 2019-6-29 00:19:13 | 显示全部楼层 |阅读模式


◎译  名 水兵陆战队员4 / 怒火还击4 / 怒火陌头4 / 暴走威龙4
◎片  名 The Marine 4: Moving Target
◎年  代 2015
◎产  地 美国
◎类  别 行动 / 惊悚
◎语  言 英语
◎上映日期 2015-04-10(美国)
◎IMDb评分  5.2/10 from 3082 users
◎IMDb链接  http://www.imdb.com/title/tt3528666
◎豆瓣评分 5.3/10 from 2114 users
◎豆瓣链接 https://movie.douban.com/subject/26351660/
◎片  长 90分钟
◎导  演 威廉·考夫曼 William Kaufman
◎编  剧 艾伦·B·罗伊 Alan B. McElroy / 斯科特·维普 Scott Wiper / 德克兰·奥布莱恩 Declan O'Brien
◎主  演 保罗·麦克吉莱恩 Paul McGillion
      迈克尔·米赞宁 Mike Mizanin
      梅丽莎·罗斯伯格 Melissa Roxburgh
      乔希·布莱克 Josh Blacker
      马修·麦考尔 Matthew MacCaull
      Danielle Moinet
      罗克·克里切洛 Roark Critchlow
      Primo Allon
      弗雷泽·艾奇逊 Fraser Aitcheson
      阿特林·米切尔 Atlin Mitchell
      大卫·刘易斯 David Lewis
      Craig Veroni
      Dominic Downer
      库蒂斯·卡拉瓦乔 Curtis Caravaggio

◎标  签 行动 | 美国 | 2015 | 美国电影 | 枪战 | 犯罪 | 没有剧情 | 烂片
◎简  介  
  前水兵陆战队员杰克·卡特(Mike 'The Miz' Mizanin 饰)在退伍后加入了一间私人安保公司,他上班的第一天是负责庇护押送潜逃外洋数星期后被抓返来的女子奥莉维娅·坦尼斯(梅丽莎·罗斯伯格 Melissa Roxburgh 饰)。奥莉维娅是IQ高达135的电脑工程师,此前隶属于美国最大的国防公司之一创世纪,她手中把握着关系国家平安的重要情报材料。杰克一行的使命是将其平安护送到国防部,谁知当车队经过某密林时,他们遭到一群手持强力杀伤性兵器之人的攻击。经过剧烈交火后,杰克带着奥莉维娅夺路流亡,好不轻易来到某据点落脚。
未过量久,叛徒和雇佣军尾随而至,残暴的杀戮远远没有停止……
  1. Video
  2. ID                                       : 1
  3. Format                                   : AVC
  4. Format/Info                              : Advanced Video Codec
  5. Format profile                           : [email protected]
  6. Format settings, CABAC                   : Yes
  7. Format settings, ReFrames                : 4 frames
  8. Codec ID                                 : V_MPEG4/ISO/AVC
  9. Duration                                 : 1h 30mn
  10. Bit rate                                 : 8 890 Kbps
  11. Width                                    : 1 920 pixels
  12. Height                                   : 1 080 pixels
  13. Display aspect ratio                     : 16:9
  14. Frame rate mode                          : Constant
  15. Frame rate                               : 23.976 fps
  16. Color space                              : YUV
  17. Chroma subsampling                       : 4:2:0
  18. Bit depth                                : 8 bits
  19. Scan type                                : Progressive
  20. Bits/(Pixel*Frame)                       : 0.179
  21. Stream size                              : 5.47 GiB (83%)
  22. Writing library                          : x264 core 144 r2525 40bb568
  23. Encoding settings                        : cabac=1 / ref=4 / deblock=1:0:0 / analyse=0x3:0x133 / me=umh / subme=7 / psy=1 / psy_rd=1.00:0.00 / mixed_ref=1 / me_range=16 / chroma_me=1 / trellis=1 / 8x8dct=1 / cqm=0 / deadzone=21,11 / fast_pskip=0 / chroma_qp_offset=-2 / threads=18 / lookahead_threads=3 / sliced_threads=0 / nr=0 / decimate=1 / interlaced=0 / bluray_compat=0 / constrained_intra=0 / bframes=3 / b_pyramid=2 / b_adapt=1 / b_bias=0 / direct=1 / weightb=1 / open_gop=0 / weightp=2 / keyint=250 / keyint_min=23 / scenecut=40 / intra_refresh=0 / rc_lookahead=40 / rc=2pass / mbtree=1 / bitrate=8890 / ratetol=1.0 / qcomp=0.60 / qpmin=0 / qpmax=69 / qpstep=4 / cplxblur=20.0 / qblur=0.5 / ip_ratio=1.40 / aq=1:1.00
  24. Language                                 : English
  25. Default                                  : Yes
  26. Forced                                   : No
  27. Audio
  28. ID                                       : 2
  29. Format                                   : DTS
  30. Format/Info                              : Digital Theater Systems
  31. Mode                                     : 16
  32. Format settings, Endianness              : Big
  33. Codec ID                                 : A_DTS
  34. Duration                                 : 1h 30mn
  35. Bit rate mode                            : Constant
  36. Bit rate                                 : 1 509 Kbps
  37. Channel(s)                               : 6 channels
  38. Channel positions                        : Front: L C R, Side: L R, LFE
  39. Sampling rate                            : 48.0 KHz
  40. Frame rate                               : 93.750 fps (512 spf)
  41. Bit depth                                : 24 bits
  42. Compression mode                         : Lossy
  43. Stream size                              : 974 MiB (15%)
  44. Language                                 : English
  45. Default                                  : Yes
  46. Forced                                   : No
  47. Menu
  48. 00:00:00.000                             : en:00:00:00.000
  49. 00:03:47.686                             : en:00:03:47.686
  50. 00:04:58.715                             : en:00:04:58.715
  51. 00:06:52.579                             : en:00:06:52.579
  52. 00:08:44.190                             : en:00:08:44.190
  53. 00:11:18.803                             : en:00:11:18.803
  54. 00:13:23.177                             : en:00:13:23.177
  55. 00:17:29.006                             : en:00:17:29.006
  56. 00:21:05.681                             : en:00:21:05.681
  57. 00:24:33.347                             : en:00:24:33.347
  58. 00:28:10.898                             : en:00:28:10.898
  59. 00:33:49.194                             : en:00:33:49.194
  60. 00:36:52.293                             : en:00:36:52.293
  61. 00:39:56.394                             : en:00:39:56.394
  62. 00:42:34.552                             : en:00:42:34.552
  63. 00:47:35.853                             : en:00:47:35.853
  64. 00:49:37.933                             : en:00:49:37.933
  65. 00:55:11.225                             : en:00:55:11.225
  66. 01:00:06.812                             : en:01:00:06.812
  67. 01:04:37.373                             : en:01:04:37.373
  68. 01:07:33.549                             : en:01:07:33.549
  69. 01:11:34.665                             : en:01:11:34.665
  70. 01:14:19.538                             : en:01:14:19.538
  71. 01:15:35.030                             : en:01:15:35.030
  72. 01:17:04.829                             : en:01:17:04.829
  73. 01:18:40.841                             : en:01:18:40.841
  74. 01:20:43.464                             : en:01:20:43.464
  75. 01:24:12.256                             : en:01:24:12.256
复制代码









                                       
                                       

                                       
                                       
                                       




回复

使用道具 举报

懒得打字嘛,点击右侧快捷回复 【右侧内容,后台自定义】
您需要登录后才可以回帖 登录 | 立即加入

本版积分规则

Archiver| |网站地图

Copyright © 2024 Comsenz Inc. Powered by 蓝光电影网

本站内容由用户自主分享和转载自互联网,转载目的在于传递更多信息,并不代表本网赞同其观点和对其真实性负责。

如有侵权、违反国家法律政策行为,请联系我们,我们会第一时间及时清除和处理!

举报反馈邮箱:4k1080.com@gmail.com

快速回复 返回顶部 返回列表