找回密码

查看: 1506|回复: 0

[惊悚] 多米诺骨牌 Domino.2019.1080p.BluRay.REMUX.AVC.DTS-HD.MA.5.1-FGT 18.85GB

[复制链接]
蓝光币
2039
发表于 2019-7-28 12:11:41 | 显示全部楼层 |阅读模式


◎译  名 多米诺骨牌
◎片  名 Domino
◎年  代 2019
◎产  地 丹麦 / 法国 / 意大利 / 比利时 / 荷兰
◎类  别 惊悚 / 犯罪
◎语  言 英语
◎上映日期 2019-06-06(意大利)
◎IMDb评分  7.5/10 from 11 users
◎IMDb链接  http://www.imdb.com/title/tt3282076
◎豆瓣评分 0/10 from 0 users
◎豆瓣链接 https://movie.douban.com/subject/27036731/
◎片  长 89分钟
◎导  演 布莱恩·德·帕尔玛 Brian De Palma
◎编  剧 彼特·斯卡弗兰 Petter Skavlan
◎主  演 卡里斯·范·侯登 Carice van Houten
      尼古拉·科斯特-瓦尔道 Nikolaj Coster-Waldau
      盖·皮尔斯 Guy Pearce
      尼可拉斯·布若 Nicolas Bro
      索伦·莫灵 S?ren Malling
      托马斯·加比利尔森 Thomas W. Gabrielsson
      帕普丽卡·斯汀 Paprika Steen
      雅各布·乌尔里克·罗曼 Jakob Ulrik Lohmann
      艾瑞克·艾伯纳尼 Eriq Ebouaney
      埃拉·琼·昂拉尔 Ella-June Henrard
      杜菲·阿尔-加布尔 Dulfi Al-Jabouri
      强·朗格 Jon Lange
      尤尼斯·贝希尔 Younes Bachir
      克里斯蒂安·布朗查特 Christian Bronchart
      Ardalan Esmaili
      Ilias Addab
      Iliass Ojja
      Sus Wilkins
      Bieke Ilegems
      Juan Aroca

◎标  签 BrianDePalma | 惊悚 | 丹麦 | 电影 | 犯罪 | 美国电影 | 2019 | 美国
◎简  介  
  已有四年未有新作面世的“老帕” 布莱恩·德·帕尔玛将拍摄一部名为《多米诺骨牌(Domino)》(暂译名)的行动惊悚片。《权利的游戏》中的弑君者尼可拉·科斯特-瓦尔道和《广告狂人》饰演Joan的克里斯蒂娜·亨德里克斯将出演男女配角。
《多米诺骨牌》由彼特·斯卡兰(《苏菲的天下》)担任编剧,故事中,男配角是一位哥本哈根当地的差人,在同伴被奥秘人暗杀后,他与同伴的情妇合作追踪凶手。不意在这个进程中却被一个凶险的中心情报局警探暗害,被劫持到了西班牙。影片将在丹麦和西班牙拍摄,IM Global公司将代理其全球事务,北美事件则将由ICM公司代理。
据悉,影片将于今年炎天开拍。
  1. Video
  2. ID                                       : 1
  3. Format                                   : AVC
  4. Format/Info                              : Advanced Video Codec
  5. Format profile                           : [email protected]
  6. Format settings                          : CABAC / 4 Ref Frames
  7. Format settings, CABAC                   : Yes
  8. Format settings, Reference frames        : 4 frames
  9. Codec ID                                 : V_MPEG4/ISO/AVC
  10. Duration                                 : 1 h 29 min
  11. Bit rate mode                            : Variable
  12. Bit rate                                 : 26.7 Mb/s
  13. Maximum bit rate                         : 37.0 Mb/s
  14. Width                                    : 1 920 pixels
  15. Height                                   : 1 080 pixels
  16. Display aspect ratio                     : 16:9
  17. Frame rate mode                          : Constant
  18. Frame rate                               : 23.976 (24000/1001) FPS
  19. Color space                              : YUV
  20. Chroma subsampling                       : 4:2:0
  21. Bit depth                                : 8 bits
  22. Scan type                                : Progressive
  23. Bits/(Pixel*Frame)                       : 0.536
  24. Stream size                              : 16.6 GiB (88%)
  25. Title                                    : Domino.2019.1080p.BluRay.REMUX.AVC.DTS-HD.MA.5.1-FGT
  26. Language                                 : English
  27. Default                                  : No
  28. Forced                                   : No
  29. Audio
  30. ID                                       : 2
  31. Format                                   : DTS XLL
  32. Format/Info                              : Digital Theater Systems
  33. Commercial name                          : DTS-HD Master Audio
  34. Codec ID                                 : A_DTS
  35. Duration                                 : 1 h 29 min
  36. Bit rate mode                            : Variable
  37. Bit rate                                 : 3 539 kb/s
  38. Channel(s)                               : 6 channels
  39. Channel layout                           : C L R Ls Rs LFE
  40. Sampling rate                            : 48.0 kHz
  41. Frame rate                               : 93.750 FPS (512 SPF)
  42. Bit depth                                : 24 bits
  43. Compression mode                         : Lossless
  44. Stream size                              : 2.21 GiB (12%)
  45. Title                                    : Domino.2019.1080p.BluRay.REMUX.AVC.DTS-HD.MA.5.1-FGT
  46. Language                                 : English
  47. Default                                  : Yes
  48. Forced                                   : No
  49. Text #1
  50. ID                                       : 3
  51. Format                                   : UTF-8
  52. Codec ID                                 : S_TEXT/UTF8
  53. Codec ID/Info                            : UTF-8 Plain Text
  54. Duration                                 : 1 h 22 min
  55. Bit rate                                 : 42 b/s
  56. Count of elements                        : 881
  57. Stream size                              : 25.4 KiB (0%)
  58. Title                                    : English-SRT
  59. Language                                 : English
  60. Default                                  : Yes
  61. Forced                                   : No
  62. Text #2
  63. ID                                       : 4
  64. Format                                   : PGS
  65. Muxing mode                              : zlib
  66. Codec ID                                 : S_HDMV/PGS
  67. Codec ID/Info                            : Picture based subtitle format used on BDs/HD-DVDs
  68. Duration                                 : 1 h 22 min
  69. Bit rate                                 : 29.4 kb/s
  70. Count of elements                        : 1762
  71. Stream size                              : 17.3 MiB (0%)
  72. Title                                    : English-PGS
  73. Language                                 : English
  74. Default                                  : No
  75. Forced                                   : No
  76. Text #3
  77. ID                                       : 5
  78. Format                                   : PGS
  79. Muxing mode                              : zlib
  80. Codec ID                                 : S_HDMV/PGS
  81. Codec ID/Info                            : Picture based subtitle format used on BDs/HD-DVDs
  82. Duration                                 : 1 h 21 min
  83. Bit rate                                 : 25.4 kb/s
  84. Count of elements                        : 1466
  85. Stream size                              : 14.8 MiB (0%)
  86. Title                                    : Spanish-PGS
  87. Language                                 : Spanish
  88. Default                                  : No
  89. Forced                                   : No
  90. Menu
  91. 00:00:00.000                             : en:Chapter 01
  92. 00:06:06.532                             : en:Chapter 02
  93. 00:10:32.757                             : en:Chapter 03
  94. 00:18:10.506                             : en:Chapter 04
  95. 00:21:27.995                             : en:Chapter 05
  96. 00:29:09.539                             : en:Chapter 06
  97. 00:33:12.448                             : en:Chapter 07
  98. 00:38:08.202                             : en:Chapter 08
  99. 00:44:59.321                             : en:Chapter 09
  100. 00:49:25.379                             : en:Chapter 10
  101. 00:55:43.381                             : en:Chapter 11
  102. 01:00:34.255                             : en:Chapter 12
  103. 01:04:15.184                             : en:Chapter 13
  104. 01:11:16.522                             : en:Chapter 14
  105. 01:17:45.035                             : en:Chapter 15
  106. 01:22:09.132                             : en:Chapter 16
复制代码






                                       
                                       

                                       
                                       
                                       




回复

使用道具 举报

懒得打字嘛,点击右侧快捷回复 【右侧内容,后台自定义】
您需要登录后才可以回帖 登录 | 立即加入

本版积分规则

Archiver| |网站地图

Copyright © 2024 Comsenz Inc. Powered by 蓝光电影网

本站内容由用户自主分享和转载自互联网,转载目的在于传递更多信息,并不代表本网赞同其观点和对其真实性负责。

如有侵权、违反国家法律政策行为,请联系我们,我们会第一时间及时清除和处理!

举报反馈邮箱:4k1080.com@gmail.com

快速回复 返回顶部 返回列表