找回密码

查看: 2011|回复: 0

[惊悚] 极端邪恶/极度邪恶 Extremely.Wicked.Shockingly.Evil.And.Vile.2019.1080p.BluRay.REMUX.AVC.DTS-HR.5.1-FGT 16.88GB

[复制链接]
蓝光币
2048
发表于 2019-7-21 06:37:38 | 显示全部楼层 |阅读模式


◎译  名 极端邪恶 / 极端邪恶 / 极恶人魔(台) / 超级变态:我的诱人男友(港)
◎片  名 Extremely Wicked, Shockingly Evil and Vile
◎年  代 2019
◎产  地 美国
◎类  别 惊悚
◎语  言 英语
◎上映日期 2019-01-26(圣丹斯电影节)
◎IMDb评分  6.7/10 from 43471 users
◎IMDb链接  http://www.imdb.com/title/tt2481498
◎豆瓣评分 6.6/10 from 2781 users
◎豆瓣链接 https://movie.douban.com/subject/24325918/
◎片  长 108分钟(圣丹斯电影节)
◎导  演 乔·伯灵格 Joe Berlinger
◎编  剧 伊丽莎白·肯德尔 Elizabeth Kendall / 迈克尔·韦 Michael Werwie
◎主  演 莉莉·柯林斯 Lily Collins
      扎克·埃夫隆 Zac Efron
      约翰·马尔科维奇 John Malkovich
      吉姆·帕森斯 Jim Parsons
      安吉拉·萨拉弗安 Angela Sarafyan
      西德尼·沃尔默 Sydney Vollmer
      梅西·卡莫西诺 Macie Carmosino
      艾娃·因曼 Ava Inman
      摩根·派尔 Morgan Pyle
      詹姆斯·海特菲尔德 James Hetfield
      理查德·K·琼斯 Richard K. Jones
      贾斯廷·因曼 Justin Inman
      格蕾丝·维多利亚·考克斯 Grace Victoria Cox
      杰弗里·多诺万 Jeffrey Donovan
      迪伦·贝克 Dylan Baker
      卡雅·斯考达里奥 Kaya Scodelario
      海利·乔·奥斯蒙 Haley Joel Osment
      特里·金尼 Terry Kinney
      肯·斯特伦克 Ken Strunk
      乔·伯灵格 Joe Berlinger
      布兰登·特罗斯特 Brandon Trost
      布莱恩·格拉格提 Brian Geraghty

◎标  签 犯罪 | 美国 | 列传 | 惊悚 | 杀手 | 2019 | Netflix | 实在事务改编
◎简  介  
  故事发生在1969年,Ted Bundy是一位出奇英俊,聪明,富有魅力又深情的青年,他的优异令为人谨慎的单身妈妈Liz Kloepfer没法阻挡。对于她来说,Ted跟她是天作之合,很快她就堕入了对这名出色年轻人的恋爱中。他们的连系刻画了完竣幸运的家庭,这对小情侣似乎有美 好的未来在等着他们——直到突如其来的变故将他们拆散。Ted因一系列可怕的谋杀控告被捕入狱,随着证据一项项浮出水面,Liz原本对爱人的担忧转为偏执与猜疑,她起头思疑同床共枕的Ted能否正如控告所说,是一个变态杀人狂?
此片报告了有史以来最污名昭著的连环杀手之一Ted Bundy的故事。饰演Liz的Lily Collins奉献了出色的表演,而Zac Efron作为Ted Bundy的表演可以重新界说他的演艺生活。著名电影人Joe Berlinger以他的实在犯罪记载片而著名,也是将这个邪恶的实在故事搬上银幕的最好人选。
  1. Video
  2. ID                                       : 1
  3. Format                                   : AVC
  4. Format/Info                              : Advanced Video Codec
  5. Format profile                           : [email protected]
  6. Format settings                          : CABAC / 4 Ref Frames
  7. Format settings, CABAC                   : Yes
  8. Format settings, ReFrames                : 4 frames
  9. Codec ID                                 : V_MPEG4/ISO/AVC
  10. Duration                                 : 1 h 50 min
  11. Bit rate mode                            : Variable
  12. Bit rate                                 : 19.9 Mb/s
  13. Maximum bit rate                         : 38.0 Mb/s
  14. Width                                    : 1 920 pixels
  15. Height                                   : 1 080 pixels
  16. Display aspect ratio                     : 16:9
  17. Frame rate mode                          : Constant
  18. Frame rate                               : 23.976 (24000/1001) FPS
  19. Color space                              : YUV
  20. Chroma subsampling                       : 4:2:0
  21. Bit depth                                : 8 bits
  22. Scan type                                : Progressive
  23. Bits/(Pixel*Frame)                       : 0.400
  24. Stream size                              : 15.3 GiB (91%)
  25. Title                                    : Extremely.Wicked.Shockingly.Evil.And.Vile.2019.1080p.BluRay.REMUX.AVC.DTS-HR.5.1-FGT
  26. Language                                 : English
  27. Default                                  : No
  28. Forced                                   : No
  29. Audio
  30. ID                                       : 2
  31. Format                                   : DTS XBR
  32. Format/Info                              : Digital Theater Systems
  33. Commercial name                          : DTS-HD High Resolution Audio
  34. Codec ID                                 : A_DTS
  35. Duration                                 : 1 h 50 min
  36. Bit rate mode                            : Constant
  37. Bit rate                                 : 2 046 kb/s
  38. Channel(s)                               : 6 channels
  39. Channel layout                           : C L R Ls Rs LFE
  40. Sampling rate                            : 48.0 kHz
  41. Frame rate                               : 93.750 FPS (512 SPF)
  42. Bit depth                                : 24 bits
  43. Compression mode                         : Lossy
  44. Stream size                              : 1.58 GiB (9%)
  45. Title                                    : Extremely.Wicked.Shockingly.Evil.And.Vile.2019.1080p.BluRay.REMUX.AVC.DTS-HR.5.1-FGT
  46. Language                                 : English
  47. Default                                  : Yes
  48. Forced                                   : No
  49. Menu
  50. 00:00:00.000                             : en:Chapter 01
  51. 00:07:39.625                             : en:Chapter 02
  52. 00:15:31.680                             : en:Chapter 03
  53. 00:22:05.407                             : en:Chapter 04
  54. 00:29:57.587                             : en:Chapter 05
  55. 00:36:14.088                             : en:Chapter 06
  56. 00:44:34.922                             : en:Chapter 07
  57. 00:52:50.167                             : en:Chapter 08
  58. 01:00:27.624                             : en:Chapter 09
  59. 01:07:39.430                             : en:Chapter 10
  60. 01:13:04.671                             : en:Chapter 11
  61. 01:20:18.522                             : en:Chapter 12
  62. 01:26:32.020                             : en:Chapter 13
  63. 01:33:11.043                             : en:Chapter 14
  64. 01:42:35.941                             : en:Chapter 15
复制代码






                                       
                                       

                                       
                                       
                                       




极端邪恶/极端邪恶 Extremely.Wicked.Shockingly.Evil.And.Vile.2019.1080p.BluRay.REMUX.AVC.DTS-HR.5.1-FGT 16.88GB

Extremely.Wicked.Shockingly.Evil.And.Vile.2019.1080p.BluRay.REMUX.AVC.DTS-HR.5.1.torrent

85.02 KB, 下载次数: 12, 下载积分: 蓝光币 -2

回复

使用道具 举报

懒得打字嘛,点击右侧快捷回复 【右侧内容,后台自定义】
您需要登录后才可以回帖 登录 | 立即加入

本版积分规则

Archiver| |网站地图

Copyright © 2024 Comsenz Inc. Powered by 蓝光电影网

本站内容由用户自主分享和转载自互联网,转载目的在于传递更多信息,并不代表本网赞同其观点和对其真实性负责。

如有侵权、违反国家法律政策行为,请联系我们,我们会第一时间及时清除和处理!

举报反馈邮箱:4k1080.com@gmail.com

快速回复 返回顶部 返回列表