找回密码

查看: 1224|回复: 0

[喜剧] 天南地北一线牵/人隔万重山 Continental.Divide.1981.1080p.BluRay.x264.FLAC.2.0-NOGRP 13.57GB

[复制链接]
蓝光币
2039
发表于 2020-12-2 15:26:01 | 显示全部楼层 |阅读模式


◎译  名 不着边沿一线牵/人隔万重山
◎片  名 Continental Divide
◎年  代 1981
◎产  地 美国
◎类  别 笑剧 / 恋爱
◎语  言 英语
◎上映日期 1981-09-18
◎IMDb评分  6.2/10 from 4547 users
◎IMDb链接  https://www.imdb.com/title/tt0082200/
◎豆瓣评分 /10 from 0 users
◎豆瓣链接 https://movie.douban.com/subject/1297985/
◎片  长 103 分钟
◎导  演 迈克尔·艾普特 Michael Apted
◎编  剧 劳伦斯·卡斯丹 Lawrence Kasdan
◎主  演 约翰·贝鲁西 John Belushi
       罗恩·迪恩 Ron Dean
       Eddie Schwartz
       弗兰克·诺尔 Frank Noel
       布鲁斯·雅霍夫 Bruce Jarchow
       Tony Ganios
       蒂姆·卡祖林斯基 Tim Kazurinsky
       艾伦·加菲尔德 Allen Garfield
       布莱尔·布朗 Blair Brown
       瓦尔·埃弗里 Val Avery
       Marji Bank
       卡琳·格林 Carlin Glynn
       比尔·亨德森 Bill Henderson
       迈克·巴卡雷纳 Mike Bacarella
◎标  签 D迈克尔·艾普特 | 美国 | WEBRip | M美国 | 1981
◎简  介


  暂无相关剧情先容
  1. Video
  2. ID                                       : 1
  3. Format                                   : AVC
  4. Format/Info                              : Advanced Video Codec
  5. Format profile                           : [email protected]
  6. Format settings                          : CABAC / 4 Ref Frames
  7. Format settings, CABAC                   : Yes
  8. Format settings, Reference frames        : 4 frames
  9. Codec ID                                 : V_MPEG4/ISO/AVC
  10. Duration                                 : 1 h 42 min
  11. Bit rate mode                            : Variable
  12. Bit rate                                 : 18.3 Mb/s
  13. Maximum bit rate                         : 40.0 Mb/s
  14. Width                                    : 1 920 pixels
  15. Height                                   : 1 040 pixels
  16. Display aspect ratio                     : 1.85:1
  17. Frame rate mode                          : Constant
  18. Frame rate                               : 23.976 (24000/1001/189150) FPS
  19. Standard                                 : Component
  20. Color space                              : YUV
  21. Chroma subsampling                       : 4:2:0
  22. Bit depth                                : 8 bits
  23. Scan type                                : Progressive
  24. Bits/(Pixel*Frame)                       : 0.383
  25. Stream size                              : 13.2 GiB (97%)
  26. Writing library                          : x264 core 155
  27. Encoding settings                        : cabac=1 / ref=4 / deblock=1:-3:-3 / analyse=0x3:0x133 / me=umh / subme=10 / psy=1 / psy_rd=1.00:0.00 / mixed_ref=1 / me_range=32 / chroma_me=1 / trellis=2 / 8x8dct=1 / cqm=1 / deadzone=21,11 / fast_pskip=0 / chroma_qp_offset=-2 / threads=12 / lookahead_threads=2 / sliced_threads=0 / slices=4 / nr=0 / decimate=1 / interlaced=0 / minigop=1 / stitchable=1 / constrained_intra=0 / bframes=9 / b_pyramid=0 / b_adapt=2 / b_bias=0 / direct=3 / weightb=1 / open_gop=1 / weightp=0 / keyint=250 / keyint_min=1 / scenecut=40 / intra_refresh=0 / rc_lookahead=60 / rc=crf / mbtree=0 / crf=17.0 / qcomp=0.60 / qpmin=3 / qpmax=69 / qpstep=4 / vbv_maxrate=40000 / vbv_bufsize=40000 / crf_max=51.0 / nal_hrd=vbr / filler=0 / ip_ratio=1.40 / pb_ratio=1.30 / aq=3:0.80
  28. Language                                 : English
  29. Default                                  : Yes
  30. Forced                                   : No
  31. Color range                              : Limited
  32. Color primaries                          : BT.709
  33. Transfer characteristics                 : BT.709
  34. Matrix coefficients                      : BT.709
  35. Audio #1
  36. ID                                       : 2
  37. ID in the original source medium         : 4352 (0x1100)
  38. Format                                   : FLAC
  39. Format/Info                              : Free Lossless Audio Codec
  40. Codec ID                                 : A_FLAC
  41. Duration                                 : 1 h 42 min
  42. Bit rate mode                            : Variable
  43. Bit rate                                 : 359 kb/s
  44. Channel(s)                               : 2 channels
  45. Channel layout                           : L R
  46. Sampling rate                            : 48.0 kHz
  47. Frame rate                               : 10.417 FPS (4608 SPF)
  48. Bit depth                                : 16 bits
  49. Compression mode                         : Lossless
  50. Stream size                              : 264 MiB (2%)
  51. Title                                    : Stereo
  52. Writing library                          : Lavc58.91.100 flac
  53. Language                                 : English
  54. Default                                  : Yes
  55. Forced                                   : No
  56. Original source medium                   : Blu-ray
  57. Audio #2
  58. ID                                       : 3
  59. ID in the original source medium         : 4353 (0x1101)
  60. Format                                   : AC-3
  61. Format/Info                              : Audio Coding 3
  62. Commercial name                          : Dolby Digital
  63. Codec ID                                 : A_AC3
  64. Duration                                 : 1 h 42 min
  65. Bit rate mode                            : Constant
  66. Bit rate                                 : 192 kb/s
  67. Channel(s)                               : 2 channels
  68. Channel layout                           : L R
  69. Sampling rate                            : 48.0 kHz
  70. Frame rate                               : 31.250 FPS (1536 SPF)
  71. Compression mode                         : Lossy
  72. Stream size                              : 141 MiB (1%)
  73. Title                                    : Commentary by Film Historian/Filmmaker Daniel Kremer and Film Historian/Biographer Nat Segaloff
  74. Language                                 : English
  75. Service kind                             : Complete Main
  76. Default                                  : No
  77. Forced                                   : No
  78. Original source medium                   : Blu-ray
  79. Text #1
  80. ID                                       : 4
  81. ID in the original source medium         : 4608 (0x1200)
  82. Format                                   : PGS
  83. Muxing mode                              : zlib
  84. Codec ID                                 : S_HDMV/PGS
  85. Codec ID/Info                            : Picture based subtitle format used on BDs/HD-DVDs
  86. Duration                                 : 1 h 39 min
  87. Bit rate                                 : 31.6 kb/s
  88. Count of elements                        : 2122
  89. Stream size                              : 22.6 MiB (0%)
  90. Title                                    : Image
  91. Language                                 : English
  92. Default                                  : No
  93. Forced                                   : No
  94. Original source medium                   : Blu-ray
  95. Text #2
  96. ID                                       : 5
  97. Format                                   : UTF-8
  98. Codec ID                                 : S_TEXT/UTF8
  99. Codec ID/Info                            : UTF-8 Plain Text
  100. Duration                                 : 1 h 41 min
  101. Bit rate                                 : 61 b/s
  102. Count of elements                        : 1377
  103. Stream size                              : 45.6 KiB (0%)
  104. Title                                    : Text
  105. Language                                 : English
  106. Default                                  : No
  107. Forced                                   : No
  108. Menu
  109. 00:00:00.000                             : en:Chapter 00
  110. 00:11:22.723                             : en:Chapter 01
  111. 00:20:40.197                             : en:Chapter 02
  112. 00:34:05.418                             : en:Chapter 03
  113. 00:48:15.726                             : en:Chapter 04
  114. 01:02:17.984                             : en:Chapter 05
  115. 01:18:19.277                             : en:Chapter 06
  116. 01:28:52.285                             : en:Chapter 07
复制代码





                                       
                                       

                                       
                                       
                                       




回复

使用道具 举报

懒得打字嘛,点击右侧快捷回复 【右侧内容,后台自定义】
您需要登录后才可以回帖 登录 | 立即加入

本版积分规则

Archiver| |网站地图

Copyright © 2024 Comsenz Inc. Powered by 蓝光电影网

本站内容由用户自主分享和转载自互联网,转载目的在于传递更多信息,并不代表本网赞同其观点和对其真实性负责。

如有侵权、违反国家法律政策行为,请联系我们,我们会第一时间及时清除和处理!

举报反馈邮箱:4k1080.com@gmail.com

快速回复 返回顶部 返回列表