找回密码

查看: 1063|回复: 0

[动作] 海军陆战队员5:杀戮战场/海军陆战队员5 The.Marine.5.Battleground.2017.1080p.BluRay.x264-ROVERS 6.56GB

[复制链接]
蓝光币
2048
发表于 2019-6-29 00:17:50 | 显示全部楼层 |阅读模式


◎译  名 水兵陆战队员5:杀戮疆场 / 水兵陆战队员5
◎片  名 The Marine 5: Battleground
◎年  代 2017
◎产  地 美国
◎类  别 行动
◎语  言 英语
◎上映日期 2017-03-28(美国)
◎IMDb评分  5.2/10 from 1197 users
◎IMDb链接  http://www.imdb.com/title/tt5781798
◎豆瓣评分 4.6/10 from 611 users
◎豆瓣链接 https://movie.douban.com/subject/26876161/
◎片  长 91分钟
◎导  演 詹姆斯·纳恩 James Nunn
◎编  剧 斯科特·维普 Scott Wiper / 爱德华·麦克亨利 Edward McHenry
◎主  演 玛丽丝·奥莱特 Maryse Ouellet
      Mike Mizanin

◎标  签 行动 | 美国 | 美国电影 | 枪战 | 犯罪 | 2017 | 烂片 | 暴力
◎简  介  
  科尔、泰勒兄弟二人受黑帮一头子威胁,枪杀了摩托党老迈罗德里格,以后负伤驾车流亡。逃到一公场地下停车场,泰勒失血过量灭亡,科尔打急救电话求救。执勤救护车同伴杰克·卡特、佐伊二人接到传呼台号令,赶到停车场,找到科尔后行将分开,却发现追杀科尔的摩托党徒阿朗索、迪肯及其女友也尾追过来。为救科尔,佐伊被阿朗索枪杀,杰克随即卷入凶杀漩涡……
  1. Video
  2. ID                                       : 1
  3. Format                                   : AVC
  4. Format/Info                              : Advanced Video Codec
  5. Format profile                           : [email protected]
  6. Format settings, CABAC                   : Yes
  7. Format settings, ReFrames                : 4 frames
  8. Codec ID                                 : V_MPEG4/ISO/AVC
  9. Duration                                 : 1h 31mn
  10. Bit rate                                 : 8 735 Kbps
  11. Width                                    : 1 920 pixels
  12. Height                                   : 1 080 pixels
  13. Display aspect ratio                     : 16:9
  14. Frame rate mode                          : Constant
  15. Frame rate                               : 23.976 fps
  16. Color space                              : YUV
  17. Chroma subsampling                       : 4:2:0
  18. Bit depth                                : 8 bits
  19. Scan type                                : Progressive
  20. Bits/(Pixel*Frame)                       : 0.176
  21. Stream size                              : 5.59 GiB (85%)
  22. Writing library                          : x264 core 148 r2744 b97ae06
  23. Encoding settings                        : cabac=1 / ref=4 / deblock=1:0:0 / analyse=0x3:0x133 / me=umh / subme=7 / psy=1 / psy_rd=1.00:0.00 / mixed_ref=1 / me_range=16 / chroma_me=1 / trellis=1 / 8x8dct=1 / cqm=0 / deadzone=21,11 / fast_pskip=0 / chroma_qp_offset=-2 / threads=24 / lookahead_threads=4 / sliced_threads=0 / nr=0 / decimate=1 / interlaced=0 / bluray_compat=0 / constrained_intra=0 / bframes=3 / b_pyramid=2 / b_adapt=1 / b_bias=0 / direct=1 / weightb=1 / open_gop=0 / weightp=2 / keyint=250 / keyint_min=23 / scenecut=40 / intra_refresh=0 / rc_lookahead=40 / rc=2pass / mbtree=1 / bitrate=8735 / ratetol=1.0 / qcomp=0.60 / qpmin=0 / qpmax=69 / qpstep=4 / cplxblur=20.0 / qblur=0.5 / ip_ratio=1.40 / aq=1:1.00
  24. Language                                 : English
  25. Default                                  : Yes
  26. Forced                                   : No

  27. Audio
  28. ID                                       : 2
  29. Format                                   : DTS
  30. Format/Info                              : Digital Theater Systems
  31. Mode                                     : 16
  32. Format settings, Endianness              : Big
  33. Codec ID                                 : A_DTS
  34. Duration                                 : 1h 31mn
  35. Bit rate mode                            : Constant
  36. Bit rate                                 : 1 509 Kbps
  37. Channel(s)                               : 6 channels
  38. Channel positions                        : Front: L C R, Side: L R, LFE
  39. Sampling rate                            : 48.0 KHz
  40. Frame rate                               : 93.750 fps (512 spf)
  41. Bit depth                                : 24 bits
  42. Compression mode                         : Lossy
  43. Stream size                              : 989 MiB (15%)
  44. Language                                 : English
  45. Default                                  : Yes
  46. Forced                                   : No

  47. Menu
  48. 00:00:00.000                             : en:00:00:00.000
  49. 00:04:53.793                             : en:00:04:53.793
  50. 00:10:28.044                             : en:00:10:28.044
  51. 00:17:43.312                             : en:00:17:43.312
  52. 00:22:28.597                             : en:00:22:28.597
  53. 00:26:59.660                             : en:00:26:59.660
  54. 00:31:01.359                             : en:00:31:01.359
  55. 00:36:44.119                             : en:00:36:44.119
  56. 00:41:30.780                             : en:00:41:30.780
  57. 00:47:43.194                             : en:00:47:43.194
  58. 00:53:52.229                             : en:00:53:52.229
  59. 01:00:29.501                             : en:01:00:29.501
  60. 01:06:54.636                             : en:01:06:54.636
  61. 01:13:35.036                             : en:01:13:35.036
  62. 01:19:06.742                             : en:01:19:06.742
  63. 01:24:13.006                             : en:01:24:13.006
复制代码




                                       
                                       

                                       
                                       
                                       




回复

使用道具 举报

懒得打字嘛,点击右侧快捷回复 【右侧内容,后台自定义】
您需要登录后才可以回帖 登录 | 立即加入

本版积分规则

Archiver| |网站地图

Copyright © 2024 Comsenz Inc. Powered by 蓝光电影网

本站内容由用户自主分享和转载自互联网,转载目的在于传递更多信息,并不代表本网赞同其观点和对其真实性负责。

如有侵权、违反国家法律政策行为,请联系我们,我们会第一时间及时清除和处理!

举报反馈邮箱:4k1080.com@gmail.com

快速回复 返回顶部 返回列表