找回密码

查看: 1076|回复: 0

[其他] 看夜更 Nightwatch.1994.1080p.BluRay.x264-USURY 9.83GB

[复制链接]
蓝光币
2039
发表于 2020-9-18 10:31:56 | 显示全部楼层 |阅读模式


◎译  名 看夜更/Nightwatch/守夜
◎片  名 Nattevagten
◎年  代 1994
◎产  地 丹麦
◎类  别 悬疑 / 惊悚 / 可骇
◎语  言 丹麦语
◎上映日期 1994-02-25
◎IMDb评分  7.2/10 from 14893 users
◎IMDb链接  https://www.imdb.com/title/tt0110631/
◎豆瓣评分 6.9/10 from 363 users
◎豆瓣链接 https://movie.douban.com/subject/1294001/
◎片  长 107 分钟
◎导  演 奥勒·博内代尔 Ole Bornedal
◎编  剧 奥勒·博内代尔 Ole Bornedal
◎主  演 尼古拉·科斯特-瓦尔道 Nikolaj Coster-Waldau
       苏菲·格拉宝 Sofie Gr?b?l
       金·波德尼亚 Kim Bodnia
◎标  签 丹麦 | 悬疑 | 惊悚 | 可骇 | 1994 | 丹麦电影 | 欧洲 | 1990s
◎简  介


  这是一部出色的心理惊悚片,剧情设备在医院的停尸房。法令系门生马丁为了赚外快,到医院停尸房当夜晚看更人,不意此时有人用手术刀持续不断杀了好几个女子。成果马丁成了怀疑犯,跟观察此案的警探之间发生了严重的关系。
  1. Video
  2. ID                                       : 1
  3. Format                                   : AVC
  4. Format/Info                              : Advanced Video Codec
  5. Format profile                           : [email protected]
  6. Format settings                          : CABAC / 4 Ref Frames
  7. Format settings, CABAC                   : Yes
  8. Format settings, Reference frames        : 4 frames
  9. Codec ID                                 : V_MPEG4/ISO/AVC
  10. Duration                                 : 1 h 47 min
  11. Bit rate                                 : 11.6 Mb/s
  12. Width                                    : 1 920 pixels
  13. Height                                   : 1 040 pixels
  14. Display aspect ratio                     : 1.85:1
  15. Frame rate mode                          : Constant
  16. Frame rate                               : 23.976 (24000/1001/189150) FPS
  17. Color space                              : YUV
  18. Chroma subsampling                       : 4:2:0
  19. Bit depth                                : 8 bits
  20. Scan type                                : Progressive
  21. Bits/(Pixel*Frame)                       : 0.242
  22. Stream size                              : 8.70 GiB (88%)
  23. Writing library                          : x264 core 157 r2969 d4099dd
  24. Encoding settings                        : cabac=1 / ref=4 / deblock=1:-3:-3 / analyse=0x3:0x133 / me=umh / subme=9 / psy=1 / psy_rd=1.00:0.00 / mixed_ref=1 / me_range=16 / chroma_me=1 / trellis=2 / 8x8dct=1 / cqm=0 / deadzone=21,11 / fast_pskip=0 / chroma_qp_offset=-2 / threads=18 / lookahead_threads=1 / sliced_threads=0 / nr=0 / decimate=1 / interlaced=0 / bluray_compat=0 / constrained_intra=0 / bframes=3 / b_pyramid=2 / b_adapt=1 / b_bias=0 / direct=3 / weightb=1 / open_gop=0 / weightp=2 / keyint=240 / keyint_min=24 / scenecut=40 / intra_refresh=0 / rc_lookahead=50 / rc=2pass / mbtree=1 / bitrate=11608 / ratetol=1.0 / qcomp=0.60 / qpmin=0 / qpmax=69 / qpstep=4 / cplxblur=20.0 / qblur=0.5 / ip_ratio=1.40 / aq=1:1.00
  25. Language                                 : English
  26. Default                                  : Yes
  27. Forced                                   : No

  28. Audio
  29. ID                                       : 2
  30. Format                                   : DTS
  31. Format/Info                              : Digital Theater Systems
  32. Codec ID                                 : A_DTS
  33. Duration                                 : 1 h 47 min
  34. Bit rate mode                            : Constant
  35. Bit rate                                 : 1 509 kb/s
  36. Channel(s)                               : 6 channels
  37. Channel layout                           : C L R Ls Rs LFE
  38. Sampling rate                            : 48.0 kHz
  39. Frame rate                               : 93.750 FPS (512 SPF)
  40. Bit depth                                : 24 bits
  41. Compression mode                         : Lossy
  42. Stream size                              : 1.13 GiB (12%)
  43. Language                                 : Danish
  44. Default                                  : Yes
  45. Forced                                   : No

  46. Text
  47. ID                                       : 3
  48. Format                                   : UTF-8
  49. Codec ID                                 : S_TEXT/UTF8
  50. Codec ID/Info                            : UTF-8 Plain Text
  51. Duration                                 : 1 h 44 min
  52. Bit rate                                 : 32 b/s
  53. Count of elements                        : 683
  54. Stream size                              : 24.5 KiB (0%)
  55. Title                                    : English
  56. Language                                 : English
  57. Default                                  : Yes
  58. Forced                                   : Yes

  59. Menu
  60. 00:00:00.000                             : en:00:00:00.000
  61. 00:11:21.931                             : en:00:11:21.931
  62. 00:18:44.248                             : en:00:18:44.248
  63. 00:30:33.582                             : en:00:30:33.582
  64. 00:40:58.373                             : en:00:40:58.373
  65. 00:48:51.095                             : en:00:48:51.095
  66. 00:59:40.452                             : en:00:59:40.452
  67. 01:13:06.882                             : en:01:13:06.882
  68. 01:21:36.100                             : en:01:21:36.100
  69. 01:31:42.122                             : en:01:31:42.122
复制代码




                                       
                                       

                                       
                                       
                                       




回复

使用道具 举报

懒得打字嘛,点击右侧快捷回复 【右侧内容,后台自定义】
您需要登录后才可以回帖 登录 | 立即加入

本版积分规则

Archiver| |网站地图

Copyright © 2024 Comsenz Inc. Powered by 蓝光电影网

本站内容由用户自主分享和转载自互联网,转载目的在于传递更多信息,并不代表本网赞同其观点和对其真实性负责。

如有侵权、违反国家法律政策行为,请联系我们,我们会第一时间及时清除和处理!

举报反馈邮箱:4k1080.com@gmail.com

快速回复 返回顶部 返回列表