找回密码

查看: 1618|回复: 0

[剧情] 不速之客/陷井边缘 The.Harder.They.Come.1972.REMASTERED.1080p.BluRay.REMUX.AVC.DTS-HD.MA.5.1-FGT 27.89GB

[复制链接]
蓝光币
2048
发表于 2019-9-20 23:33:29 | 显示全部楼层 |阅读模式


◎译  名 不速之客 / 陷井边沿
◎片  名 The Harder They Come
◎年  代 1972
◎产  地 牙买加
◎类  别 剧情 / 音乐 / 犯罪
◎语  言 英语
◎上映日期 1972-01-01
◎IMDb链接  http://www.imdb.com/title/tt0070155/
◎豆瓣评分 7.4/10 from 317 users
◎豆瓣链接 https://movie.douban.com/subject/1301883/
◎片  长 USA: 120 分钟
◎导  演 Perry Henzell
◎编  剧 Perry Henzell / Trevor D. Rhone
◎主  演 Jimmy Cliff
       Janet Bartley
       Carl Bradshaw
       Ras Daniel Hartman

◎标  签 牙买加 | 音乐 | 雷鬼 | 1970s | 牙买加电影 | CC | cult | 音乐电影
◎简  介  
  70年月,一个贫困潦到的牙买加青年,他很有音乐才能想通出一张颤动的唱片很快摆脱贫困,没有想到被唱片商耍了。一气之下,他走上了贩运毒品的路,今后他的平生发生了庞大的变化……......本片的传奇在于由于它,雷鬼(Reggie)音乐起头传遍全球,改变了风行音乐景观。
  本片的电影原声在《文娱周刊》的100部巨大OST评选中荣获第12位。
  1. Video
  2. ID                                       : 1
  3. Format                                   : AVC
  4. Format/Info                              : Advanced Video Codec
  5. Format profile                           : [email protected]
  6. Format settings                          : CABAC / 4 Ref Frames
  7. Format settings, CABAC                   : Yes
  8. Format settings, Reference frames        : 4 frames
  9. Codec ID                                 : V_MPEG4/ISO/AVC
  10. Duration                                 : 1 h 43 min
  11. Bit rate mode                            : Constant
  12. Bit rate                                 : 34.0 Mb/s
  13. Width                                    : 1 920 pixels
  14. Height                                   : 1 080 pixels
  15. Display aspect ratio                     : 16:9
  16. Frame rate mode                          : Constant
  17. Frame rate                               : 23.976 (24000/1001) FPS
  18. Color space                              : YUV
  19. Chroma subsampling                       : 4:2:0
  20. Bit depth                                : 8 bits
  21. Scan type                                : Progressive
  22. Bits/(Pixel*Frame)                       : 0.684
  23. Stream size                              : 23.9 GiB (86%)
  24. Title                                    : The.Harder.They.Come.1972.REMASTERED.1080p.BluRay.REMUX.AVC.DTS-HD.MA.5.1-FGT
  25. Language                                 : English
  26. Default                                  : No
  27. Forced                                   : No
  28. Audio #1
  29. ID                                       : 2
  30. Format                                   : DTS XLL
  31. Format/Info                              : Digital Theater Systems
  32. Commercial name                          : DTS-HD Master Audio
  33. Codec ID                                 : A_DTS
  34. Duration                                 : 1 h 43 min
  35. Bit rate mode                            : Variable
  36. Bit rate                                 : 3 687 kb/s
  37. Channel(s)                               : 6 channels
  38. Channel layout                           : C L R Ls Rs LFE
  39. Sampling rate                            : 48.0 kHz
  40. Frame rate                               : 93.750 FPS (512 SPF)
  41. Bit depth                                : 24 bits
  42. Compression mode                         : Lossless
  43. Stream size                              : 2.65 GiB (10%)
  44. Title                                    : The.Harder.They.Come.1972.REMASTERED.1080p.BluRay.REMUX.AVC.DTS-HD.MA.5.1-FGT
  45. Language                                 : English
  46. Default                                  : Yes
  47. Forced                                   : No
  48. Audio #2
  49. ID                                       : 3
  50. Format                                   : DTS XLL
  51. Format/Info                              : Digital Theater Systems
  52. Commercial name                          : DTS-HD Master Audio
  53. Codec ID                                 : A_DTS
  54. Duration                                 : 1 h 43 min
  55. Bit rate mode                            : Variable
  56. Bit rate                                 : 1 580 kb/s
  57. Channel(s)                               : 2 channels
  58. Channel layout                           : L R
  59. Sampling rate                            : 48.0 kHz
  60. Frame rate                               : 93.750 FPS (512 SPF)
  61. Bit depth                                : 24 bits
  62. Compression mode                         : Lossless
  63. Stream size                              : 1.14 GiB (4%)
  64. Title                                    : The.Harder.They.Come.1972.REMASTERED.1080p.BluRay.REMUX.AVC.DTS-HD.MA.5.1-FGT
  65. Language                                 : English
  66. Default                                  : No
  67. Forced                                   : No
  68. Audio #3
  69. ID                                       : 4
  70. Format                                   : AC-3
  71. Format/Info                              : Audio Coding 3
  72. Commercial name                          : Dolby Digital
  73. Codec ID                                 : A_AC3
  74. Duration                                 : 1 h 43 min
  75. Bit rate mode                            : Constant
  76. Bit rate                                 : 192 kb/s
  77. Channel(s)                               : 2 channels
  78. Channel layout                           : L R
  79. Sampling rate                            : 48.0 kHz
  80. Frame rate                               : 31.250 FPS (1536 SPF)
  81. Bit depth                                : 16 bits
  82. Compression mode                         : Lossy
  83. Stream size                              : 142 MiB (0%)
  84. Title                                    : The.Harder.They.Come.1972.REMASTERED.1080p.BluRay.REMUX.AVC.DTS-HD.MA.5.1-FGT
  85. Language                                 : English
  86. Service kind                             : Complete Main
  87. Default                                  : No
  88. Forced                                   : No
  89. Text
  90. ID                                       : 5
  91. Format                                   : PGS
  92. Muxing mode                              : zlib
  93. Codec ID                                 : S_HDMV/PGS
  94. Codec ID/Info                            : Picture based subtitle format used on BDs/HD-DVDs
  95. Duration                                 : 1 h 42 min
  96. Bit rate                                 : 32.4 kb/s
  97. Count of elements                        : 2217
  98. Stream size                              : 23.7 MiB (0%)
  99. Title                                    : English-PGS
  100. Language                                 : English
  101. Default                                  : Yes
  102. Forced                                   : No
  103. Menu
  104. 00:00:00.000                             : en:Chapter 01
  105. 00:09:57.013                             : en:Chapter 02
  106. 00:18:39.201                             : en:Chapter 03
  107. 00:25:26.149                             : en:Chapter 04
  108. 00:33:30.258                             : en:Chapter 05
  109. 00:40:36.183                             : en:Chapter 06
  110. 00:48:11.471                             : en:Chapter 07
  111. 00:56:55.912                             : en:Chapter 08
  112. 01:06:33.447                             : en:Chapter 09
  113. 01:14:29.423                             : en:Chapter 10
  114. 01:21:44.024                             : en:Chapter 11
  115. 01:30:50.027                             : en:Chapter 12
  116. 01:43:01.008                             : en:Chapter 13
复制代码






                                       
                                       

                                       
                                       
                                       




回复

使用道具 举报

懒得打字嘛,点击右侧快捷回复 【右侧内容,后台自定义】
您需要登录后才可以回帖 登录 | 立即加入

本版积分规则

Archiver| |网站地图

Copyright © 2024 Comsenz Inc. Powered by 蓝光电影网

本站内容由用户自主分享和转载自互联网,转载目的在于传递更多信息,并不代表本网赞同其观点和对其真实性负责。

如有侵权、违反国家法律政策行为,请联系我们,我们会第一时间及时清除和处理!

举报反馈邮箱:4k1080.com@gmail.com

快速回复 返回顶部 返回列表