找回密码

查看: 1540|回复: 0

[惊悚] 女族长 Matriarch.2018.1080p.BluRay.REMUX.AVC.DTS-HD.MA.5.1-FGT 14.32GB

[复制链接]
蓝光币
2048
发表于 2019-7-2 00:49:40 | 显示全部楼层 |阅读模式


◎译  名 女族长 / Mother
◎片  名 Matriarch
◎年  代 2018
◎产  地 英国
◎类  别 惊悚 / 可骇
◎语  言 英语
◎上映日期 2018-11-02(英国)
◎IMDb评分  5.7/10 from 1463 users
◎IMDb链接  http://www.imdb.com/title/tt6301452
◎豆瓣评分 0/10 from 0 users
◎豆瓣链接 https://movie.douban.com/subject/30257425/
◎导  演 Scott Ryan Vickers
◎编  剧 Scott Ryan Vickers
◎主  演 查莉·布莱克伍德 Charlie Blackwood
      朱莉·汉南 Julie Hannan
      斯科特·维克斯 Scott Ryan Vickers
      艾伦·库斯伯特 Alan Cuthbert
      碧翁尼·梦露 Briony Monroe
      托伦·弗格森 Thoren Ferguson
      马丁·墨菲 Martin Murphy
      Kris McDowall
      Cameron Fulton
      David Friel
      Anne Kane Howie
      Andrew Kelly
      Alex Martin

◎标  签 英国 | 可骇 | 惊悚 | 2019 | 英国电影 | 悬疑 | 英国观影 | 电影
◎简  介  
  An expecting Mother (Rachel) and husband (Matt) crash their car in the countryside and are offered shelter by a farmer and his wife. Rachel soon realizes the farmer's children are in fact stolen. Just as they try to escape from the farm Rachel goes into labor.....
  1. Video
  2. ID                                       : 1
  3. Format                                   : AVC
  4. Format/Info                              : Advanced Video Codec
  5. Format profile                           : [email protected]
  6. Format settings                          : CABAC / 2 Ref Frames
  7. Format settings, CABAC                   : Yes
  8. Format settings, ReFrames                : 2 frames
  9. Codec ID                                 : V_MPEG4/ISO/AVC
  10. Duration                                 : 1 h 31 min
  11. Bit rate mode                            : Variable
  12. Bit rate                                 : 20.8 Mb/s
  13. Maximum bit rate                         : 30.2 Mb/s
  14. Width                                    : 1 920 pixels
  15. Height                                   : 1 080 pixels
  16. Display aspect ratio                     : 16:9
  17. Frame rate mode                          : Constant
  18. Frame rate                               : 23.976 (24000/1001) FPS
  19. Color space                              : YUV
  20. Chroma subsampling                       : 4:2:0
  21. Bit depth                                : 8 bits
  22. Scan type                                : Progressive
  23. Bits/(Pixel*Frame)                       : 0.419
  24. Stream size                              : 13.3 GiB (93%)
  25. Title                                    : Matriarch.2018.1080p.BluRay.REMUX.AVC.DTS-HD.MA.5.1-FGT
  26. Language                                 : English
  27. Default                                  : No
  28. Forced                                   : No
  29. Audio
  30. ID                                       : 2
  31. Format                                   : DTS XLL
  32. Format/Info                              : Digital Theater Systems
  33. Commercial name                          : DTS-HD Master Audio
  34. Codec ID                                 : A_DTS
  35. Duration                                 : 1 h 31 min
  36. Bit rate mode                            : Variable
  37. Bit rate                                 : 1 518 kb/s
  38. Channel(s)                               : 6 channels
  39. Channel layout                           : C L R Ls Rs LFE
  40. Sampling rate                            : 48.0 kHz
  41. Frame rate                               : 93.750 FPS (512 SPF)
  42. Bit depth                                : 16 bits
  43. Compression mode                         : Lossless
  44. Stream size                              : 996 MiB (7%)
  45. Title                                    : Matriarch.2018.1080p.BluRay.REMUX.AVC.DTS-HD.MA.5.1-FGT
  46. Language                                 : English
  47. Default                                  : Yes
  48. Forced                                   : No
  49. Menu
  50. 00:00:00.000                             : en:Chapter 01
  51. 00:02:27.438                             : en:Chapter 02
  52. 00:13:30.893                             : en:Chapter 03
  53. 00:24:16.746                             : en:Chapter 04
  54. 00:34:41.913                             : en:Chapter 05
  55. 00:46:49.640                             : en:Chapter 06
  56. 00:53:14.733                             : en:Chapter 07
  57. 01:01:06.704                             : en:Chapter 08
  58. 01:05:04.066                             : en:Chapter 09
  59. 01:10:55.167                             : en:Chapter 10
  60. 01:21:07.028                             : en:Chapter 11
  61. 01:29:04.297                             : en:Chapter 12
复制代码






                                       
                                       

                                       
                                       
                                       




回复

使用道具 举报

懒得打字嘛,点击右侧快捷回复 【右侧内容,后台自定义】
您需要登录后才可以回帖 登录 | 立即加入

本版积分规则

Archiver| |网站地图

Copyright © 2024 Comsenz Inc. Powered by 蓝光电影网

本站内容由用户自主分享和转载自互联网,转载目的在于传递更多信息,并不代表本网赞同其观点和对其真实性负责。

如有侵权、违反国家法律政策行为,请联系我们,我们会第一时间及时清除和处理!

举报反馈邮箱:4k1080.com@gmail.com

快速回复 返回顶部 返回列表