找回密码

查看: 1846|回复: 0

[剧情] 卡默兹之战 Karmouz.War.2018.1080p.BluRay.REMUX.AVC.DTS-HD.MA.TrueHD.5.1-FGT 34.83GB

[复制链接]
蓝光币
2048
发表于 2019-9-20 20:32:07 | 显示全部楼层 |阅读模式


◎译  名 卡默兹之战 / Harb Karmooz
◎片  名 Karmouz War
◎年  代 2018
◎产  地 埃及
◎类  别 剧情 / 行动 / 战争 / 冒险
◎语  言 阿拉伯语 / 英语
◎上映日期 2018-06(埃及)
◎IMDb评分  6.6/10 from 706 users
◎IMDb链接  http://www.imdb.com/title/tt8351882
◎豆瓣评分 0/10 from 0 users
◎豆瓣链接 https://movie.douban.com/subject/27622801/
◎片  长 114分钟
◎导  演 Peter Mimi
◎主  演 斯科特·阿金斯 Scott Adkins

◎标  签 埃及 | 行动 | 2018 | 电影 | 战争 | 非洲电影 | 剧情 | 犯罪
◎简  介  
  电影围绕一位farouk(埃及最初一位国王)期间居住在karmooz地域的一位警官yousself el masry展开。masry履历过上百场战役而且在电影里救下了一位差点被强奸的姑娘。导演日前在ins静态上发照片确认斯科特阿金斯加盟这部影片。
  1. Video
  2. ID                                       : 1
  3. Format                                   : AVC
  4. Format/Info                              : Advanced Video Codec
  5. Format profile                           : [email protected]
  6. Format settings                          : CABAC / 4 Ref Frames
  7. Format settings, CABAC                   : Yes
  8. Format settings, Reference frames        : 4 frames
  9. Codec ID                                 : V_MPEG4/ISO/AVC
  10. Duration                                 : 1 h 55 min
  11. Bit rate mode                            : Variable
  12. Bit rate                                 : 30.7 Mb/s
  13. Maximum bit rate                         : 35.0 Mb/s
  14. Width                                    : 1 920 pixels
  15. Height                                   : 1 080 pixels
  16. Display aspect ratio                     : 16:9
  17. Frame rate mode                          : Constant
  18. Frame rate                               : 23.976 (24000/1001) FPS
  19. Standard                                 : NTSC
  20. Color space                              : YUV
  21. Chroma subsampling                       : 4:2:0
  22. Bit depth                                : 8 bits
  23. Scan type                                : Progressive
  24. Bits/(Pixel*Frame)                       : 0.618
  25. Stream size                              : 24.8 GiB (71%)
  26. Title                                    : Karmouz.War.2018.1080p.BluRay.REMUX.AVC.DTS-HD.MA.TrueHD.5.1-FGT
  27. Language                                 : English
  28. Default                                  : No
  29. Forced                                   : No
  30. Color range                              : Limited
  31. Color primaries                          : BT.709
  32. Transfer characteristics                 : BT.709
  33. Matrix coefficients                      : BT.709
  34. Audio #1
  35. ID                                       : 2
  36. Format                                   : MLP FBA
  37. Format/Info                              : Meridian Lossless Packing FBA
  38. Commercial name                          : Dolby TrueHD
  39. Codec ID                                 : A_TRUEHD
  40. Duration                                 : 1 h 55 min
  41. Bit rate mode                            : Variable
  42. Bit rate                                 : 3 240 kb/s
  43. Maximum bit rate                         : 4 725 kb/s
  44. Channel(s)                               : 6 channels
  45. Channel layout                           : L R C LFE Ls Rs
  46. Sampling rate                            : 48.0 kHz
  47. Frame rate                               : 1 200.000 FPS (40 SPF)
  48. Compression mode                         : Lossless
  49. Stream size                              : 2.62 GiB (8%)
  50. Title                                    : Karmouz.War.2018.1080p.BluRay.REMUX.AVC.DTS-HD.MA.TrueHD.5.1-FGT
  51. Language                                 : English
  52. Default                                  : Yes
  53. Forced                                   : No
  54. Audio #2
  55. ID                                       : 3
  56. Format                                   : DTS XLL
  57. Format/Info                              : Digital Theater Systems
  58. Commercial name                          : DTS-HD Master Audio
  59. Codec ID                                 : A_DTS
  60. Duration                                 : 1 h 55 min
  61. Bit rate mode                            : Variable
  62. Bit rate                                 : 3 935 kb/s
  63. Channel(s)                               : 6 channels
  64. Channel layout                           : C L R Ls Rs LFE
  65. Sampling rate                            : 48.0 kHz
  66. Frame rate                               : 93.750 FPS (512 SPF)
  67. Bit depth                                : 24 bits
  68. Compression mode                         : Lossless
  69. Stream size                              : 3.18 GiB (9%)
  70. Title                                    : Karmouz.War.2018.1080p.BluRay.REMUX.AVC.DTS-HD.MA.TrueHD.5.1-FGT
  71. Language                                 : English
  72. Default                                  : No
  73. Forced                                   : No
  74. Audio #3
  75. ID                                       : 4
  76. Format                                   : AC-3
  77. Format/Info                              : Audio Coding 3
  78. Commercial name                          : Dolby Digital
  79. Codec ID                                 : A_AC3
  80. Duration                                 : 1 h 55 min
  81. Bit rate mode                            : Constant
  82. Bit rate                                 : 640 kb/s
  83. Channel(s)                               : 6 channels
  84. Channel layout                           : L R C LFE Ls Rs
  85. Sampling rate                            : 48.0 kHz
  86. Frame rate                               : 31.250 FPS (1536 SPF)
  87. Bit depth                                : 16 bits
  88. Compression mode                         : Lossy
  89. Stream size                              : 530 MiB (1%)
  90. Title                                    : Karmouz.War.2018.1080p.BluRay.REMUX.AVC.DTS-HD.MA.TrueHD.5.1-FGT
  91. Language                                 : English
  92. Service kind                             : Complete Main
  93. Default                                  : No
  94. Forced                                   : No
  95. Audio #4
  96. ID                                       : 5
  97. Format                                   : MLP FBA
  98. Format/Info                              : Meridian Lossless Packing FBA
  99. Commercial name                          : Dolby TrueHD
  100. Codec ID                                 : A_TRUEHD
  101. Duration                                 : 1 h 56 min
  102. Bit rate mode                            : Variable
  103. Bit rate                                 : 3 746 kb/s
  104. Maximum bit rate                         : 4 854 kb/s
  105. Channel(s)                               : 6 channels
  106. Channel layout                           : L R C LFE Ls Rs
  107. Sampling rate                            : 48.0 kHz
  108. Frame rate                               : 1 200.000 FPS (40 SPF)
  109. Compression mode                         : Lossless
  110. Stream size                              : 3.04 GiB (9%)
  111. Title                                    : Karmouz.War.2018.1080p.BluRay.REMUX.AVC.DTS-HD.MA.TrueHD.5.1-FGT
  112. Language                                 : French
  113. Default                                  : No
  114. Forced                                   : No
  115. Audio #5
  116. ID                                       : 6
  117. Format                                   : AC-3
  118. Format/Info                              : Audio Coding 3
  119. Commercial name                          : Dolby Digital
  120. Codec ID                                 : A_AC3
  121. Duration                                 : 1 h 56 min
  122. Bit rate mode                            : Constant
  123. Bit rate                                 : 640 kb/s
  124. Channel(s)                               : 6 channels
  125. Channel layout                           : L R C LFE Ls Rs
  126. Sampling rate                            : 48.0 kHz
  127. Frame rate                               : 31.250 FPS (1536 SPF)
  128. Bit depth                                : 16 bits
  129. Compression mode                         : Lossy
  130. Stream size                              : 532 MiB (1%)
  131. Title                                    : Karmouz.War.2018.1080p.BluRay.REMUX.AVC.DTS-HD.MA.TrueHD.5.1-FGT
  132. Language                                 : French
  133. Service kind                             : Complete Main
  134. Default                                  : No
  135. Forced                                   : No
  136. Text #1
  137. ID                                       : 7
  138. Format                                   : UTF-8
  139. Codec ID                                 : S_TEXT/UTF8
  140. Codec ID/Info                            : UTF-8 Plain Text
  141. Duration                                 : 1 h 51 min
  142. Bit rate                                 : 44 b/s
  143. Count of elements                        : 1290
  144. Stream size                              : 36.4 KiB (0%)
  145. Title                                    : English-SRT
  146. Language                                 : English
  147. Default                                  : Yes
  148. Forced                                   : No
  149. Text #2
  150. ID                                       : 8
  151. Format                                   : PGS
  152. Muxing mode                              : zlib
  153. Codec ID                                 : S_HDMV/PGS
  154. Codec ID/Info                            : Picture based subtitle format used on BDs/HD-DVDs
  155. Duration                                 : 1 h 51 min
  156. Bit rate                                 : 21.1 kb/s
  157. Count of elements                        : 2596
  158. Stream size                              : 16.8 MiB (0%)
  159. Title                                    : English-PGS
  160. Language                                 : English
  161. Default                                  : No
  162. Forced                                   : No
  163. Text #3
  164. ID                                       : 9
  165. Format                                   : PGS
  166. Muxing mode                              : zlib
  167. Codec ID                                 : S_HDMV/PGS
  168. Codec ID/Info                            : Picture based subtitle format used on BDs/HD-DVDs
  169. Duration                                 : 1 h 51 min
  170. Bit rate                                 : 23.2 kb/s
  171. Count of elements                        : 2268
  172. Stream size                              : 18.4 MiB (0%)
  173. Title                                    : French-PGS
  174. Language                                 : French
  175. Default                                  : No
  176. Forced                                   : No
  177. Text #4
  178. ID                                       : 10
  179. Format                                   : PGS
  180. Muxing mode                              : zlib
  181. Codec ID                                 : S_HDMV/PGS
  182. Codec ID/Info                            : Picture based subtitle format used on BDs/HD-DVDs
  183. Duration                                 : 7 s 195 ms
  184. Bit rate                                 : 10.9 kb/s
  185. Count of elements                        : 2
  186. Stream size                              : 9.61 KiB (0%)
  187. Title                                    : French-FORCED-PGS
  188. Language                                 : French
  189. Default                                  : No
  190. Forced                                   : No
  191. Menu
  192. 00:00:00.000                             : en:Chapter 01
  193. 00:15:12.536                             : en:Chapter 02
  194. 00:29:45.992                             : en:Chapter 03
  195. 00:44:30.626                             : en:Chapter 04
  196. 01:00:04.058                             : en:Chapter 05
  197. 01:14:29.840                             : en:Chapter 06
  198. 01:30:25.795                             : en:Chapter 07
  199. 01:51:34.354                             : en:Chapter 08
复制代码






                                       
                                       

                                       
                                       
                                       




回复

使用道具 举报

懒得打字嘛,点击右侧快捷回复 【右侧内容,后台自定义】
您需要登录后才可以回帖 登录 | 立即加入

本版积分规则

Archiver| |网站地图

Copyright © 2024 Comsenz Inc. Powered by 蓝光电影网

本站内容由用户自主分享和转载自互联网,转载目的在于传递更多信息,并不代表本网赞同其观点和对其真实性负责。

如有侵权、违反国家法律政策行为,请联系我们,我们会第一时间及时清除和处理!

举报反馈邮箱:4k1080.com@gmail.com

快速回复 返回顶部 返回列表