找回密码

查看: 1717|回复: 0

[惊悚] 异形入侵 The.Sender.1982.1080p.BluRay.REMUX.AVC.LPCM.2.0-FGT 25.27GB

[复制链接]
蓝光币
2039
发表于 2019-6-26 21:54:30 | 显示全部楼层 |阅读模式


◎译  名 异形入侵
◎片  名 The Sender
◎年  代 1982
◎产  地 英国
◎类  别 惊悚 / 可骇
◎语  言 英语
◎上映日期 1982-10-22
◎IMDb评分  6.1/10 from 1220 users
◎IMDb链接  http://www.imdb.com/title/tt0084658
◎豆瓣评分 0/10 from 0 users
◎豆瓣链接 https://movie.douban.com/subject/1302830/
◎片  长 91 分钟
◎导  演 罗杰·克里斯蒂安 Roger Christian
◎编  剧 Thomas Baum
◎主  演 凯思琳·哈罗德 Kathryn Harrold
      泽利科·伊万内克 Zeljko Ivanek
      雪莉·奈特 Shirley Knight
      保罗·弗里曼 Paul Freeman

◎标  签 惊悚 | 悬疑 | Sonychen | HBO | 英国 | 可骇 | 被轻忽的电影 | 科幻
◎简  介  
  以“精神感应”来做文章的科幻可骇片。剧情描写一位得了忘记症的年轻人乞助于神经病女医师,在她持久观察下发现青年的病状非常手奇,似乎具有一种难以说明的奇异气力。此时青年忽然在医院中自杀,他在睡梦中将自己的噩梦传输到其他病人的梦海中,形成医院的大发急,女医生才鲜明发现青年本来是外星派来的异形。这部低本钱的英国片拍得氛围松散,悬疑性的卖弄也相当做功,显出导演罗杰·克里斯蒂安处置范例处的功力。
  1. Video
  2. ID                                       : 1
  3. Format                                   : AVC
  4. Format/Info                              : Advanced Video Codec
  5. Format profile                           : [email protected]
  6. Format settings                          : CABAC / 3 Ref Frames
  7. Format settings, CABAC                   : Yes
  8. Format settings, ReFrames                : 3 frames
  9. Codec ID                                 : V_MPEG4/ISO/AVC
  10. Duration                                 : 1 h 31 min
  11. Bit rate mode                            : Variable
  12. Bit rate                                 : 35.0 Mb/s
  13. Maximum bit rate                         : 36.0 Mb/s
  14. Width                                    : 1 920 pixels
  15. Height                                   : 1 080 pixels
  16. Display aspect ratio                     : 16:9
  17. Frame rate mode                          : Constant
  18. Frame rate                               : 23.976 (24000/1001) FPS
  19. Color space                              : YUV
  20. Chroma subsampling                       : 4:2:0
  21. Bit depth                                : 8 bits
  22. Scan type                                : Progressive
  23. Bits/(Pixel*Frame)                       : 0.704
  24. Stream size                              : 22.3 GiB (88%)
  25. Title                                    : The.Sender.1982.1080p.BluRay.REMUX.AVC.LPCM.2.0-FGT
  26. Writing library                          : x264 core 157 r2935 545de2f
  27. Encoding settings                        : cabac=1 / ref=4 / deblock=1:-1:-1 / analyse=0x3:0x133 / me=umh / subme=10 / psy=1 / psy_rd=1.00:0.15 / mixed_ref=1 / me_range=24 / chroma_me=1 / trellis=2 / 8x8dct=1 / cqm=0 / deadzone=21,11 / fast_pskip=1 / chroma_qp_offset=-3 / threads=12 / lookahead_threads=1 / sliced_threads=0 / slices=4 / nr=0 / decimate=1 / interlaced=0 / bluray_compat=1 / stitchable=1 / constrained_intra=0 / bframes=3 / b_pyramid=1 / b_adapt=2 / b_bias=0 / direct=3 / weightb=1 / open_gop=1 / weightp=1 / keyint=24 / keyint_min=1 / scenecut=60 / intra_refresh=0 / rc_lookahead=24 / rc=2pass / mbtree=1 / bitrate=35000 / ratetol=0.1 / qcomp=0.90 / qpmin=0 / qpmax=69 / qpstep=4 / cplxblur=20.0 / qblur=0.5 / vbv_maxrate=36000 / vbv_bufsize=30000 / nal_hrd=vbr / filler=0 / ip_ratio=1.40 / aq=1:1.00
  28. Language                                 : English
  29. Default                                  : No
  30. Forced                                   : No
  31. Color range                              : Limited
  32. Color primaries                          : BT.709
  33. Transfer characteristics                 : BT.709
  34. Matrix coefficients                      : BT.709
  35. Audio #1
  36. ID                                       : 2
  37. Format                                   : PCM
  38. Format settings                          : Little / Signed
  39. Codec ID                                 : A_PCM/INT/LIT
  40. Duration                                 : 1 h 31 min
  41. Bit rate mode                            : Constant
  42. Bit rate                                 : 2 304 kb/s
  43. Channel(s)                               : 2 channels
  44. Sampling rate                            : 48.0 kHz
  45. Frame rate                               : 30.000 FPS (1600 SPF)
  46. Bit depth                                : 24 bits
  47. Stream size                              : 1.48 GiB (6%)
  48. Title                                    : The.Sender.1982.1080p.BluRay.REMUX.AVC.LPCM.2.0-FGT
  49. Language                                 : English
  50. Default                                  : Yes
  51. Forced                                   : No
  52. Audio #2
  53. ID                                       : 3
  54. Format                                   : PCM
  55. Format settings                          : Little / Signed
  56. Codec ID                                 : A_PCM/INT/LIT
  57. Duration                                 : 1 h 31 min
  58. Bit rate mode                            : Constant
  59. Bit rate                                 : 2 304 kb/s
  60. Channel(s)                               : 2 channels
  61. Sampling rate                            : 48.0 kHz
  62. Frame rate                               : 30.000 FPS (1600 SPF)
  63. Bit depth                                : 24 bits
  64. Stream size                              : 1.48 GiB (6%)
  65. Title                                    : The.Sender.1982.1080p.BluRay.REMUX.AVC.LPCM.2.0-FGT
  66. Language                                 : English
  67. Default                                  : No
  68. Forced                                   : No
  69. Text
  70. ID                                       : 4
  71. Format                                   : PGS
  72. Muxing mode                              : zlib
  73. Codec ID                                 : S_HDMV/PGS
  74. Codec ID/Info                            : Picture based subtitle format used on BDs/HD-DVDs
  75. Duration                                 : 1 h 24 min
  76. Bit rate                                 : 19.5 kb/s
  77. Count of elements                        : 1422
  78. Stream size                              : 11.8 MiB (0%)
  79. Title                                    : English-PGS
  80. Language                                 : English
  81. Default                                  : Yes
  82. Forced                                   : No
  83. Menu
  84. 00:00:00.000                             : en:Chapter 00
  85. 00:07:14.058                             : en:Chapter 01
  86. 00:15:17.166                             : en:Chapter 02
  87. 00:22:52.454                             : en:Chapter 03
  88. 00:30:10.934                             : en:Chapter 04
  89. 00:41:01.917                             : en:Chapter 05
  90. 00:46:42.591                             : en:Chapter 06
  91. 00:53:25.493                             : en:Chapter 07
  92. 00:59:25.645                             : en:Chapter 08
  93. 01:08:41.867                             : en:Chapter 09
  94. 01:14:17.453                             : en:Chapter 10
  95. 01:23:08.149                             : en:Chapter 11
复制代码






                                       
                                       

                                       
                                       
                                       




回复

使用道具 举报

懒得打字嘛,点击右侧快捷回复 【右侧内容,后台自定义】
您需要登录后才可以回帖 登录 | 立即加入

本版积分规则

Archiver| |网站地图

Copyright © 2024 Comsenz Inc. Powered by 蓝光电影网

本站内容由用户自主分享和转载自互联网,转载目的在于传递更多信息,并不代表本网赞同其观点和对其真实性负责。

如有侵权、违反国家法律政策行为,请联系我们,我们会第一时间及时清除和处理!

举报反馈邮箱:4k1080.com@gmail.com

快速回复 返回顶部 返回列表