找回密码

查看: 1002|回复: 0

[喜剧] 追杀胖老爹/肉身轰炸 Fatman.2020.1080p.BluRay.x264.DTS-NOGRP 9.19GB

[复制链接]
蓝光币
2048
发表于 2020-12-14 19:55:41 | 显示全部楼层 |阅读模式


◎译  名 追杀胖老爹/肉身轰炸/肥佬/瘦削侠/胖子/追杀圣诞老人
◎片  名 Fatman
◎年  代 2020
◎产  地 英国,加拿大,美国
◎类  别 笑剧 / 行动 / 奇异
◎语  言 英语
◎上映日期 2020-10-08(法国收集) / 2020-10-17(Film Fest 919) / 2020-11-24(美国收集)
◎IMDb评分  5.9/10 from 8326 users
◎IMDb链接  https://www.imdb.com/title/tt10310140/
◎豆瓣评分 5.5/10 from 693 users
◎豆瓣链接 https://movie.douban.com/subject/33440169/
◎片  长 100分钟
◎导  演 艾什姆·内尔姆斯 Eshom Nelms / 伊恩·内尔姆斯 Ian Nelms
◎编  剧 艾什姆·内尔姆斯 Eshom Nelms / 伊恩·内尔姆斯 Ian Nelms
◎主  演 梅尔·吉布森 Mel Gibson
       钱斯·赫斯菲尔德 Chance Hurstfield
       沃尔顿·戈金斯 Walton Goggins
       玛丽安娜·琼-巴普蒂斯特 Marianne Jean-Baptiste
       肖恩·本森 Shaun Benson
       保利诺·努内斯 Paulino Nunes
       马克·戴 Mark Day
       黛博拉·格罗弗 Deborah Grover
       米雪儿·朗 Michelle Lang
       罗伯特·博克斯塔尔 Robert Bockstael
       迈克尔·迪克森 Michael Dickson
       米克尔·康德 Mikael Conde
       肖恩·塔克 Sean Tucker
       沙维尔·索特洛 Xavier Sotelo
       肖恩迪瓦恩 Sean Devine
       迈克尔·戴森 Michael Dyson
       迪伦·罗伯茨 Dylan Roberts
       Bill Lake
◎标  签 美国 | 笑剧 | 2020 | 行动 | 奇异 | 犯罪 | 搞笑 | 英国
◎简  介


  圣诞老人克里斯(梅尔·吉布森 饰)随着年数增加,奇迹也随着逐年下滑。为了拯救圣诞工场,并赡养他的小精灵员工,他被迫与美军合作,转行起头制造军武。不外一次失误,竟让他惹来杀身之祸?!就在圣诞节早晨,一位富豪家庭男孩(钱斯·赫斯菲尔德 饰),满心期待地翻开圣诞礼物,却发现礼物只是一块煤炭。大发雷霆的他,决议招聘职业杀手,猎杀这位让他怒喜洋洋的圣诞老人……屁孩PK圣诞老人,最初究竟谁输谁赢?
  1. Video
  2. ID                                       : 1
  3. Format                                   : AVC
  4. Format/Info                              : Advanced Video Codec
  5. Format profile                           : [email protected]
  6. Format settings                          : CABAC / 4 Ref Frames
  7. Format settings, CABAC                   : Yes
  8. Format settings, Reference frames        : 4 frames
  9. Codec ID                                 : V_MPEG4/ISO/AVC
  10. Duration                                 : 1 h 40 min
  11. Bit rate                                 : 11.6 Mb/s
  12. Width                                    : 1 914 pixels
  13. Height                                   : 800 pixels
  14. Display aspect ratio                     : 2.40:1
  15. Original display aspect ratio            : 2.40:1
  16. Frame rate mode                          : Constant
  17. Frame rate                               : 23.976 (24000/1001/189150) FPS
  18. Color space                              : YUV
  19. Chroma subsampling                       : 4:2:0
  20. Bit depth                                : 8 bits
  21. Scan type                                : Progressive
  22. Bits/(Pixel*Frame)                       : 0.317
  23. Stream size                              : 8.13 GiB (88%)
  24. Writing library                          : x264 core 157 r2867+150 7e91e0e t_mod_Custom_2 [[email protected] X86_64]
  25. Encoding settings                        : cabac=1 / ref=4 / deblock=1:-3:-3 / analyse=0x3:0x133 / me=umh / subme=11 / psy=1 / fade_compensate=0.00 / psy_rd=0.90:0.10 / mixed_ref=1 / me_range=64 / chroma_me=1 / trellis=2 / 8x8dct=1 / cqm=0 / deadzone=21,11 / fast_pskip=0 / chroma_qp_offset=-4 / threads=25 / lookahead_threads=4 / sliced_threads=0 / nr=0 / decimate=1 / interlaced=0 / bluray_compat=0 / constrained_intra=0 / fgo=0 / bframes=8 / b_pyramid=2 / b_adapt=2 / b_bias=0 / direct=3 / weightb=1 / open_gop=0 / weightp=2 / keyint=250 / keyint_min=23 / scenecut=40 / intra_refresh=0 / rc_lookahead=60 / rc=crf / mbtree=0 / crf=18.0000 / qcomp=0.70 / qpmin=0:0:0 / qpmax=69:69:69 / qpstep=4 / vbv_maxrate=35000 / vbv_bufsize=35000 / crf_max=0.0 / nal_hrd=none / filler=0 / ip_ratio=1.40 / pb_ratio=1.30 / aq=3:1.00 / aq-sensitivity=10.00 / aq-factor=1.00:1.00:1.00 / aq2=0 / aq3=0
  26. Language                                 : English
  27. Default                                  : Yes
  28. Forced                                   : No
  29. Audio
  30. ID                                       : 2
  31. Format                                   : DTS
  32. Format/Info                              : Digital Theater Systems
  33. Codec ID                                 : A_DTS
  34. Duration                                 : 1 h 40 min
  35. Bit rate mode                            : Constant
  36. Bit rate                                 : 1 509 kb/s
  37. Channel(s)                               : 6 channels
  38. Channel layout                           : C L R Ls Rs LFE
  39. Sampling rate                            : 48.0 kHz
  40. Frame rate                               : 93.750 FPS (512 SPF)
  41. Bit depth                                : 24 bits
  42. Compression mode                         : Lossy
  43. Stream size                              : 1.05 GiB (11%)
  44. Language                                 : English
  45. Default                                  : Yes
  46. Forced                                   : No
  47. Text #1
  48. ID                                       : 3
  49. Format                                   : UTF-8
  50. Codec ID                                 : S_TEXT/UTF8
  51. Codec ID/Info                            : UTF-8 Plain Text
  52. Duration                                 : 1 h 34 min
  53. Bit rate                                 : 43 b/s
  54. Count of elements                        : 1079
  55. Stream size                              : 30.3 KiB (0%)
  56. Language                                 : English
  57. Default                                  : Yes
  58. Forced                                   : No
  59. Text #2
  60. ID                                       : 4
  61. Format                                   : UTF-8
  62. Codec ID                                 : S_TEXT/UTF8
  63. Codec ID/Info                            : UTF-8 Plain Text
  64. Duration                                 : 1 h 37 min
  65. Bit rate                                 : 44 b/s
  66. Count of elements                        : 1170
  67. Stream size                              : 31.9 KiB (0%)
  68. Title                                    : SDH
  69. Language                                 : English
  70. Default                                  : No
  71. Forced                                   : No
  72. Text #3
  73. ID                                       : 5
  74. Format                                   : PGS
  75. Muxing mode                              : zlib
  76. Codec ID                                 : S_HDMV/PGS
  77. Codec ID/Info                            : Picture based subtitle format used on BDs/HD-DVDs
  78. Duration                                 : 1 h 37 min
  79. Bit rate                                 : 21.2 kb/s
  80. Count of elements                        : 2340
  81. Stream size                              : 14.8 MiB (0%)
  82. Title                                    : PGS
  83. Language                                 : English
  84. Default                                  : No
  85. Forced                                   : No
  86. Menu
  87. 00:00:00.000                             : en:绗?01 绔?
  88. 00:14:04.719                             : en:绗?02 绔?
  89. 00:27:23.392                             : en:绗?03 绔?
  90. 00:39:03.841                             : en:绗?04 绔?
  91. 00:51:24.707                             : en:绗?05 绔?
  92. 01:12:50.199                             : en:绗?06 绔?
  93. 01:22:26.775                             : en:绗?07 绔?
  94. 01:37:02.817                             : en:绗?08 绔?
复制代码



                                       
                                       

                                       
                                       
                                       




回复

使用道具 举报

懒得打字嘛,点击右侧快捷回复 【右侧内容,后台自定义】
您需要登录后才可以回帖 登录 | 立即加入

本版积分规则

Archiver| |网站地图

Copyright © 2024 Comsenz Inc. Powered by 蓝光电影网

本站内容由用户自主分享和转载自互联网,转载目的在于传递更多信息,并不代表本网赞同其观点和对其真实性负责。

如有侵权、违反国家法律政策行为,请联系我们,我们会第一时间及时清除和处理!

举报反馈邮箱:4k1080.com@gmail.com

快速回复 返回顶部 返回列表